Симпсоны / The Simpsons / Сезон: 26 / Серии: 9 из 22 (Мэтт Гроунинг / Matt Groening) [2014, Мультфильм, комедия, WEB-DLRip 720р] MVO (Nice-Media) + Original (Eng) [обновляемая]

 

Создавать темы 25-Дек-2014 05:58

-Симпсоны / The Simpsons
«Just a product of society that's lost its good manners»
-- Производство: США
Жанр: мультфильм, комедия, семейный, ...
Год выпуска: 2014 г.
Мировая премьера: 17 декабря 1989, ...
Дата выхода DVD: 21 августа 2008, «Двадцатый Век Фокс СНГ», ...
Релиз: Студия |Nice-Media|
Озвучка: Многоголосый закадровый, профессиональный |Nice-Media|
Оригинальный аудиопоток: английский
Перевод: Stevvie
Режиссер: Марк Керклэнд / Mark Kirkland, Стивен Дин Мур / Steven Dean Moore, Джим Рирдон / Jim Reardon ...
В ролях: Дэн Кастелланета, Джули Кавнер, Нэнси Картрайт, Ярдли Смит, Гарри Ширер, Хэнк Азария, Памела Хейден, Тресс МакНилл, Карл Видерготт, Мэгги Росвэлл ...-Описание:
Симпсоны живут в вымышленном городе Спрингфилд, со своим обществом и историей. Гомер - отец семейства, который дает плохие советы и работает инспектором безопасности на атомной электростанции; Мардж - любящая мать и жена, старается сохранить спокойствие в семье; Барт - 10 летний хулиган; Лиза - философский 8-летний ребенок; и Мэгги - младенец, который общается посредством соски.-Сезон: 26
Серии: 9 из 22 серий
Продолжительность: ~ 00:22:00 мин серия-Качество видео: WEB-DLRip 720р
Контейнер: MKV
Видеокодек: AVC ([email protected])
Аудиокодек: AC3
Видео: AVC at 3300 Кбит/сек: 1280 x 720 (1.778) at 23.976 fps, 0.15 bit/pixel
Аудио Rus: AC-3 at 384 Кбит/сек: 6 каналов, 48,0 КГц |Nice-Media|
Аудио Eng: AC-3 at 384 Кбит/сек: 6 каналов, 48,0 КГц |Original|
Cубтитры: Отсутствуют
- -

Список серий:

  • Клоун на свалке (Clown in the Dumps)
  • Крушение Отношений (The Wreck of the Relationship)
  • Супер франшизу мне (Super Franchise Me)
  • Домик ужасов на деревне 25 (Treehouse of Horror XXV)
  • Противоположности A-Frack (Opposites A-Frack)
  • Симпсорама (Simpsorama)
  • Горящий и в смятении (Blazed and Confused)
  • Ремесло покрытия (Covercraft)
  • Я не буду дома на Рождество (I Won't Be Home for Christmas)


  • (The Man Who Came to Be Dinner)
  • (The Musk Who Fell to Earth)
  • (Bart's New Friend)
-

MediaInfo:

Общее
Уникальный идентификатор : 174850416000021826849618824939999924734 (0x838AF7171AD1C408B0EEEC79BEBD11FE)
Полное имя : E:\_Сериалы\_МультСериалы\Симпсоны\The.Simpsons.S26.720p.Nice-Media\The.Simpsons.S26E01.Clown.in.the.Dumps.720p.WEB-DL.Nice-Media.rus.eng.mkv
Формат : Matroska
Версия формата : Version 4 / Version 2
Размер файла : 630 Мбайт
Продолжительность : 21 м.
Общий поток : 4151 Кбит/сек
Дата кодирования : UTC 2014-10-04 00:13:28
Программа кодирования : mkvmerge v7.0.0 ('Where We Going') 64bit built on Jun 9 2014 15:16:27
Библиотека кодирования : libebml v1.3.0 + libmatroska v1.4.1
_STATISTICS_WRITING_APP : mkvmerge v7.0.0 ('Where We Going') 64bit built on Jun 9 2014 15:16:27
_STATISTICS_WRITING_DATE_UTC : 2014-10-04 00:13:28
_STATISTICS_TAGS : BPS DURATION NUMBER_OF_FRAMES NUMBER_OF_BYTES
DURATION : 00:21:12.320000000
NUMBER_OF_FRAMES : 39760
NUMBER_OF_BYTES : 61071360
Видео
Идентификатор : 1
Формат : AVC
Формат/Информация : Advanced Video Codec
Профиль формата : [email protected]
Параметр CABAC формата : Нет
Параметр ReFrames формата : 2 кадра
Параметр GOP формата : N=1
Идентификатор кодека : V_MPEG4/ISO/AVC
Продолжительность : 21 м.
Битрейт : 3300 Кбит/сек
Ширина : 1280 пикселей
Высота : 720 пикселей
Соотношение сторон : 16:9
Режим частоты кадров : Постоянный
Частота кадров : 23,976 кадра/сек
Цветовое пространство : YUV
Субдискретизация насыщенности : 4:2:0
Битовая глубина : 8 бит
Тип развёртки : Прогрессивная
Бит/(Пиксели*Кадры) : 0.149
Размер потока : 501 Мбайт (80%)
Язык : English
Default : Да
Forced : Нет
Основные цвета : BT.709
Характеристики трансфера : BT.709
Коэффициенты матрицы : BT.709
Аудио #1
Идентификатор : 2
Формат : AC-3
Формат/Информация : Audio Coding 3
Расширение режима : CM (complete main)
Параметр Endianness формата : Big
Идентификатор кодека : A_AC3
Продолжительность : 21 м.
Вид битрейта : Постоянный
Битрейт : 384 Кбит/сек
Каналы : 6 каналов
Расположение каналов : Front: L C R, Side: L R, LFE
Частота : 48,0 КГц
Битовая глубина : 16 бит
Метод сжатия : С потерями
Размер потока : 58,2 Мбайт (9%)
Заголовок : RUS (Nice-Media)
Язык : Russian
Default : Да
Forced : Нет
Аудио #2
Идентификатор : 3
Формат : AC-3
Формат/Информация : Audio Coding 3
Расширение режима : CM (complete main)
Параметр Endianness формата : Big
Идентификатор кодека : A_AC3
Продолжительность : 21 м.
Вид битрейта : Постоянный
Битрейт : 384 Кбит/сек
Каналы : 6 каналов
Расположение каналов : Front: L C R, Side: L R, LFE
Частота : 48,0 КГц
Битовая глубина : 16 бит
Метод сжатия : С потерями
Размер потока : 58,2 Мбайт (9%)
Заголовок : ENG
Язык : English
Default : Нет
Forced : Нет
-

Скриншот c названием фильма

-Скриншоты:
-

Еще

-

Внимание! Раздача ведётся путём добавления новых серий!

Раздача ведётся путём добавления новых серий; при каждом добавлении создаётся новый торрент.
Чтобы начать докачку новой серии, пользователям необходимо сделать следующее:
1. остановить скачивание,
2. удалить старый торрент у себя из клиента (старые серии удалять не надо),
3. скачать новый торрент и запустить его у себя в клиенте вместо старого, при этом указать клиенту путь в старую папку, куда и должно происходить скачивание новых серий.
Ваш клиент при этом должен произвести хеширование (проверку) старой папки (если не производит сам - помогите ему сделать это), и будет докачивать только те серии которых у вас ещё нет. Старые серии при этом не удаляются, а продолжают раздаваться!
Eсли вы уже удалили старые серии, то предотвратить повторную закачку старых серий можно, отжав галочку в соответствующих местах при запуске нового торрента. По возможности, желательно не удалять старые серии как можно дольше, чтобы релизёр не столько продолжал раздавать старые серии, а смог сконцентрироваться на новых.
Совет для тех, кто не хочет ждать перехеширования:
Создайте ещё одну папку рядом с папкой сериала (рядом, а не в ней!!!). Каждую новую серию после удачной загрузки копируйте в новую папку так чтобы ваша основная папка всегда была пуста. Когда ваш новый торрент предложит вам закачать все файлы, выберете только последнюю. Для сидирования же укажите адрес новой папки.
Как закачать отдельный файл из торрента или докачать ранее пропущенные файлы торрента!
-

Как закачать отдельный файл

1. Открыть торрент
2. Снять галки с тех файлов торрента, которые мы не хотим закачивать. Оставляем только на нужных нам файлах (файле).
3. Нажать О.К.
В клиенте utorrent
Инструкция
1) Открыть торрент

2) Снять галки с тех файлов торрента, которые мы не хотим закачивать:
* либо вручную, снимая с каждого файла галку( скрин №1)
* либо, нажав кнопку "Снять метки (Select None)", сняв сразу со всех файлов(скрин №2)
№1

№2

Оставляем только на нужных нам файлах (файле).

3)Нажать О.К
-Добавлена девятая серия двадцать шестого сезона
Яндекс.Метрика
Рейтинг@Mail.ru