Миллион способов потерять голову / A Million Ways to Die in the West [Расширенная версия] (Сет МакФарлейн / Seth MacFarlane) [2014 г., Комедия, вестерн, BDRip] Dub (Лицензия)

 

Создавать темы 24-Дек-2014 10:08

-Миллион способов потерять голову / A Million Ways to Die in the West-«From the guy who brought you Ted»- Производство: США, Bluegrass Films
Год выпуска: 2014 г.
Жанр: Комедия, вестерн
Продолжительность: 02:14:45
Мировая премьера: 29 мая 2014
Российская премьера: 10 июля 2014, «UPI»
Дата выхода DVD: 25 сентября 2014, «Двадцатый Век Фокс СНГ»
Дата выхода Blu-Ray: 25 сентября 2014, «Двадцатый Век Фокс СНГ»
Перевод #1: Профессиональный (полное дублирование) [Лицензия]-Режиссер: Сет МакФарлейн / Seth MacFarlane
В ролях: Сет МакФарлейн, Шарлиз Терон, Аманда Сайфред, Лиам Нисон, Джованни Рибизи, Нил Патрик Харрис, Сара Силверман, Кристофер Хэйген, Уэс Стьюди, Мэтт Кларк-Описание: Угораздило же влюбиться не в том месте и не в то время. Здесь хамят в ресторанах, о горячей воде слагают легенды, да и с транспортом полный коллапс. Но у таинственной незнакомки отменная фигура, да и стреляет она без промаха. Кто же по своей воле откажется от такой красотки?- -Качество видео: BDRip
Контейнер: AVI
Видео кодек: XviD
Аудио кодек: AC3
Видео: 720x304 (2.37:1), 23.976 fps, XviD build 73 ~1347 kbps avg, 0.26 bit/pixel
Аудио: 48 kHz, AC3 Dolby Digital, 2/0 (L,R) ch, ~192 kbps
Cубтитры: Отсутствуют
Примечание: UNRATED - Расширенная версия, длиннее театральной на ~19 минут! Полный перевод! Расширенные UNRATED сцены озвучены студией "Paradox".

Media Info

General
Complete name : D:\Million.sposobov.poteryat.golovu.2014.D.Unrated.BDRip.avi
Format : AVI
Format/Info : Audio Video Interleave
File size : 1.46 GiB
Duration : 2h 14mn
Overall bit rate : 1 549 Kbps
Genre : Comedy/Western
Writing application : VirtualDubMod 1.5.10.3 (build 2550/release)
Writing library : VirtualDubMod build 2550/release
Original source form/Name : Movie
Video
ID : 0
Format : MPEG-4 Visual
Format profile : Advanced [email protected]
Format settings, BVOP : 1
Format settings, QPel : No
Format settings, GMC : No warppoints
Format settings, Matrix : Custom
Codec ID : XVID
Codec ID/Hint : XviD
Duration : 2h 14mn
Bit rate : 1 348 Kbps
Width : 720 pixels
Height : 304 pixels
Display aspect ratio : 2.35:1
Frame rate : 23.976 fps
Color space : YUV
Chroma subsampling : 4:2:0
Bit depth : 8 bits
Scan type : Progressive
Compression mode : Lossy
Bits/(Pixel*Frame) : 0.257
Stream size : 1.27 GiB (87%)
Writing library : XviD 73
Audio
ID : 1
Format : AC-3
Format/Info : Audio Coding 3
Mode extension : CM (complete main)
Format settings, Endianness : Big
Codec ID : 2000
Duration : 2h 14mn
Bit rate mode : Constant
Bit rate : 192 Kbps
Channel(s) : 2 channels
Channel positions : Front: L R
Sampling rate : 48.0 KHz
Bit depth : 16 bits
Compression mode : Lossy
Stream size : 185 MiB (12%)
Alignment : Split accross interleaves
Interleave, duration : 42 ms (1.00 video frame)
Interleave, preload duratio : 500 ms

Скриншоты

Яндекс.Метрика
Рейтинг@Mail.ru