[ Сегодня на трекере фрилич! Идет свободное скачивание без начисления Download ]

Страховщик / Autómata (Габе Ибаньес / Gabe Ibáñez) [2014 г., фантастика, триллер, HDRip] Dub [Лицензия]

 

Создавать темы 23-Дек-2014 16:21

-Страховщик / Autómata-- Производство: Испания, Болгария
Год выпуска: 2014 г.
Жанр: фантастика, триллер
Продолжительность: 01:49:54
Перевод: Профессиональный (полное дублирование) [Лицензия]-Режиссер: Габе Ибаньес / Gabe Ibáñez-В ролях: Антонио Бандерас, Биргитта Йорт Сёренсен, Мелани Гриффит, Дилан МакДермотт, Роберт Форстер, Тим МакИннерни, Энди Найман, Дэвид Райалл, Эндрю Тирнан, Криста Кэмпбелл-Описание: Главным героем фильма станет страховой агент компании по изготовлению роботов Жак Вокан, который обнаруживает, что изобретаемые роботы создаются не для эксплуатации, а для истребления.- -Качество видео: HDRip
Контейнер: AVI
Видео кодек: XviD
Аудио кодек: AC3
Видео: 720x304, 23.976 fps, 1450 kbps avg, 0.276 bit/pixel
Аудио: 48 kHz, AC3 Dolby Digital, 3/2 (L,C,R,l,r) + LFE ch, ~448 kbps
Cубтитры: отсутствуют-

Media Info

Общее
Полное имя : C:\Users\Ромик\Pictures\Страховщик\Automata.2014.HDRip.1.46.avi
Формат : AVI
Формат/Информация : Audio Video Interleave
Размер файла : 1,46 Гбайт
Продолжительность : 1 ч. 49 м.
Общий поток : 1907 Кбит/сек
Программа кодирования : VirtualDubModRus 1.5.10.2 (build 2542/release)
Библиотека кодирования : VirtualDubMod build 2542/release
Видео
Идентификатор : 0
Формат : MPEG-4 Visual
Профиль формата : Advanced [email protected]
Параметр BVOP формата : 2
Параметр QPel формата : Нет
Параметр GMC формата : Без точки перехода
Параметр матрицы формата : Default (MPEG)
Идентификатор кодека : XVID
Идентификатор кодека/Подсказка : XviD
Продолжительность : 1 ч. 49 м.
Битрейт : 1450 Кбит/сек
Ширина : 720 пикселей
Высота : 304 пикселя
Соотношение сторон : 2,35:1
Частота кадров : 23,976 кадра/сек
Цветовое пространство : YUV
Субдискретизация насыщенности : 4:2:0
Битовая глубина : 8 бит
Тип развёртки : Прогрессивная
Метод сжатия : С потерями
Бит/(Пиксели*Кадры) : 0.276
Размер потока : 1,11 Гбайт (76%)
Библиотека кодирования : XviD 1.2.1 (UTC 2008-12-04)
Аудио
Идентификатор : 1
Формат : AC-3
Формат/Информация : Audio Coding 3
Расширение режима : CM (complete main)
Параметр Endianness формата : Big
Идентификатор кодека : 2000
Продолжительность : 1 ч. 49 м.
Вид битрейта : Постоянный
Битрейт : 448 Кбит/сек
Каналы : 6 каналов
Расположение каналов : Front: L C R, Side: L R, LFE
Частота : 48,0 КГц
Битовая глубина : 16 бит
Метод сжатия : С потерями
Размер потока : 352 Мбайт (23%)
Выравнивание : Разделение по промежуткам
Продолжительность промежутка : 42 мс. (1,00 видеокадр)
Время предзагрузки промежутка : 500 мс.
-

Скриншоты

-
Яндекс.Метрика
Рейтинг@Mail.ru