В плену обмана (Сергей Краснов) [2014 г., мелодрама, SATRip]

 

Создавать темы 23-Дек-2014 16:19

-В плену обмана-- Производство: Россия
Год выпуска: 2014 г.
Жанр: мелодрама
Продолжительность: 01:28:57-Режиссер: Сергей Краснов-В ролях: Анастасия Дубровина, Михаил Пшеничный, Алексей Анищенко, Александра Булычёва, Мария Ситко, Александр Смирнов, Елена Цыплакова, Анна Литкенс, Евгений Морозов, Дмитрий Бедерин-Описание: Счастливые влюбленные Ольга и Игорь заканчивают школу и мечтают о скорой свадьбе. Но судьба распоряжается иначе: поступить в институт удаётся лишь Ольге, а Игорь уходит служить в армию. В разлуке любовь героев лишь крепнет, и, кажется, эта временная трудность не помешает их счастью… Но долгожданная встреча происходит совсем не так, как грезилось влюбленным. В армии с Игорем происходит трагедия: после тяжелой драки, по вине врачей парню ампутируют ноги. Решив не ломать Ольге жизнь, Игорь, скрывая увечия, говорит, что любит другую и она ждёт от него ребенка. Ольга в шоке уезжает, а Игорь понимает, что его жизнь кончена… Немало злоключений героям предстоит пройти, прежде чем плен обмана будет разрушен… Выдержит ли все испытания настоящая любовь?- -Качество видео: SATRip
Контейнер: AVI
Видео кодек: XviD
Аудио кодек: MP3
Видео: 720x400, 25,000 fps, 2067 kbps avg, 0.287 bit/pixel
Аудио: 48 kHz, MPEG Layer 3, 2 ch, ~128.00 kbps avg
Cубтитры: отсутствуют-

Media Info

Общее
Полное имя : C:\Users\Ромик\Pictures\В плену обмана\V.plenu.obmana.SATRip.avi
Формат : AVI
Формат/Информация : Audio Video Interleave
Размер файла : 1,37 Гбайт
Продолжительность : 1 ч. 28 м.
Общий поток : 2208 Кбит/сек
Видео
Идентификатор : 0
Формат : MPEG-4 Visual
Профиль формата : Advanced [email protected]
Параметр BVOP формата : 2
Параметр QPel формата : Нет
Параметр GMC формата : Без точки перехода
Параметр матрицы формата : Default (H.263)
Идентификатор кодека : XVID
Идентификатор кодека/Подсказка : XviD
Продолжительность : 1 ч. 28 м.
Битрейт : 2067 Кбит/сек
Ширина : 720 пикселей
Высота : 400 пикселей
Соотношение сторон : 16:9
Частота кадров : 25,000 кадров/сек
Цветовое пространство : YUV
Субдискретизация насыщенности : 4:2:0
Битовая глубина : 8 бит
Тип развёртки : Прогрессивная
Метод сжатия : С потерями
Бит/(Пиксели*Кадры) : 0.287
Размер потока : 1,28 Гбайт (94%)
Библиотека кодирования : XviD 1.2.1 (UTC 2008-12-04)
Аудио
Идентификатор : 1
Формат : MPEG Audio
Версия формата : Version 1
Профиль формата : Layer 3
Режим : Joint stereo
Расширение режима : MS Stereo
Идентификатор кодека : 55
Идентификатор кодека/Подсказка : MP3
Продолжительность : 1 ч. 28 м.
Вид битрейта : Постоянный
Битрейт : 128 Кбит/сек
Каналы : 2 канала
Частота : 48,0 КГц
Метод сжатия : С потерями
Размер потока : 81,4 Мбайт (6%)
Выравнивание : Соединение по промежуткам
Продолжительность промежутка : 24 мс. (0,60 видеокадр)
Библиотека кодирования : LAME3.99r
Настройки программы : -m j -V 4 -q 9 -lowpass 17 -b 128
-

Скриншот c названием фильма

-

Скриншоты

-
Яндекс.Метрика
Рейтинг@Mail.ru