Холод в июле / Cold in July (Джим Микл / Jim Mickle) [2014 г., триллер, криминал, BDRip, 720p] Dub (Лицензия) + Original (Eng) + Sub (Rus, Eng)

 

Создавать темы 23-Дек-2014 16:09

-Холод в июле / Cold in July-«Единожды убившего уже не остановить»- Производство: США, Франция, Backup Media, BSM Studio, Bullet Pictures, Paradise City
Год выпуска: 2014 г.
Жанр: триллер, криминал
Продолжительность: 01:50:02
Мировая премьера: 18 января 2014
Российская премьера: 18 сентября 2014, «Cinema Prestige»
Перевод: Профессиональный (полное дублирование) [Лицензия]
Оригинальный аудиопоток: английский-Режиссер: Джим Микл / Jim Mickle
В ролях: Винесса Шоу, Уайатт Расселл, Майкл С. Холл, Дон Джонсон, Сэм Шепард, Ник Дамичи, Лэнни Флаэрти, Кен Холмс, Рэйчел Зейгер-Хааг, Кристин Гриффит-Описание: Ричард Дэйн, тихий и безобидный мужчина, случайно застрелил забравшегося в его дом грабителя. Полиция опознала в убитом давно находящегося в розыске преступника, труп забрали и быстро похоронили. Однако вскоре появляется отец погибшего, Бен Рассел, живущий по принципу «око за око». И теперь Дэйну приходится защищать себя и своего ребенка. А вскоре в полицейском участке на доске с фотографиями разыскиваемых преступников он видит знакомую фамилию Рассел, но абсолютно незнакомое лицо. Полицейские подставили его или произошла трагическая ошибка? Вместе с Беном и его другом, частным детективом Джимом, он начинает нешуточное сражение за торжество справедливости.- -Качество видео: BDRip
Контейнер: MKV
Стандарт разрешения: 720p
Видео кодек: H.264
Аудио кодек: AC3 / DTS
Видео: 1280х534 (2.40:1), 5 600 Kbps, 23.976 fps, 0.342 bit/pix
Аудио: AC3, 384 Kbps, 6 ch, 48.0 KHz - Rus
Аудио #2: DTS, 1 509 Kbps, 6 ch, 48.0 KHz - Eng
Cубтитры: Русские, Английские
Формат субтитров: softsub (SRT)
Дополнительно: Сохранены оригинальные чаптеры как на Blu-Ray

Media Info

General
Unique ID : 238498355837368035738268629139334231266 (0xB36D1CCE12CC0E32AAAC93A2207DF4E2)
Complete name : D:\Holod v ijule.2014.D.BDRip.720p.mkv
Format : Matroska
Format version : Version 4 / Version 2
File size : 5.76 GiB
Duration : 1h 50mn
Overall bit rate : 7 494 Kbps
Encoded date : UTC 2014-12-21 16:11:54
Writing application : mkvmerge v6.8.0 ('Theme for Great Cities') 64bit built on Mar 2 2014 21:34:26
Writing library : libebml v1.3.0 + libmatroska v1.4.1
Video
ID : 1
Format : AVC
Format/Info : Advanced Video Codec
Format profile : [email protected]
Format settings, CABAC : Yes
Format settings, ReFrames : 12 frames
Codec ID : V_MPEG4/ISO/AVC
Duration : 1h 50mn
Bit rate : 5 600 Kbps
Width : 1 280 pixels
Height : 534 pixels
Display aspect ratio : 2.40:1
Frame rate mode : Constant
Frame rate : 23.976 fps
Color space : YUV
Chroma subsampling : 4:2:0
Bit depth : 8 bits
Scan type : Progressive
Bits/(Pixel*Frame) : 0.342
Stream size : 4.19 GiB (73%)
Writing library : x264 core 142 r2431+42 c69a006 tMod [[email protected]:2:0 X86_64]
Encoding settings : cabac=1 / ref=12 / deblock=1:-3:-3 / analyse=0x3:0x113 / me=umh / subme=11 / psy=1 / fade_compensate=0.00 / psy_rd=0.90:0.05 / mixed_ref=1 / me_range=48 / chroma_me=1 / trellis=2 / 8x8dct=1 / cqm=0 / deadzone=21,11 / fast_pskip=0 / chroma_qp_offset=-3 / threads=18 / lookahead_threads=3 / sliced_threads=0 / nr=0 / decimate=0 / interlaced=0 / bluray_compat=0 / constrained_intra=0 / fgo=0 / bframes=9 / b_pyramid=2 / b_adapt=2 / b_bias=0 / direct=3 / weightb=1 / open_gop=0 / weightp=2 / keyint=240 / keyint_min=24 / scenecut=40 / intra_refresh=0 / rc_lookahead=40 / rc=2pass / mbtree=0 / bitrate=5600 / ratetol=1.0 / qcomp=0.70 / qpmin=0:0:0 / qpmax=69:69:69 / qpstep=4 / cplxblur=20.0 / qblur=0.5 / vbv_maxrate=40000 / vbv_bufsize=30000 / nal_hrd=none / filler=0 / ip_ratio=1.20 / pb_ratio=1.20 / aq=4:1.05 / aq-sensitivity=10.00 / aq-factor=1.00:1.00:1.00 / aq2=0 / aq3=0
Language : English
Default : Yes
Forced : No
Audio #1
ID : 2
Format : AC-3
Format/Info : Audio Coding 3
Mode extension : CM (complete main)
Format settings, Endianness : Big
Codec ID : A_AC3
Duration : 1h 50mn
Bit rate mode : Constant
Bit rate : 384 Kbps
Channel(s) : 6 channels
Channel positions : Front: L C R, Side: L R, LFE
Sampling rate : 48.0 KHz
Bit depth : 16 bits
Compression mode : Lossy
Stream size : 302 MiB (5%)
Language : Russian
Default : Yes
Forced : Yes
Audio #2
ID : 3
Format : DTS
Format/Info : Digital Theater Systems
Mode : 16
Format settings, Endianness : Big
Codec ID : A_DTS
Duration : 1h 50mn
Bit rate mode : Constant
Bit rate : 1 509 Kbps
Channel(s) : 6 channels
Channel positions : Front: L C R, Side: L R, LFE
Sampling rate : 48.0 KHz
Bit depth : 24 bits
Compression mode : Lossy
Stream size : 1.16 GiB (20%)
Language : English
Default : No
Forced : No
Text #1
ID : 4
Format : UTF-8
Codec ID : S_TEXT/UTF8
Codec ID/Info : UTF-8 Plain Text
Language : Russian
Default : Yes
Forced : Yes
Text #2
ID : 5
Format : UTF-8
Codec ID : S_TEXT/UTF8
Codec ID/Info : UTF-8 Plain Text
Language : English
Default : No
Forced : No
Menu
00:00:00.000 : en:00:00:00.000
00:07:02.881 : en:00:07:02.881
00:17:19.372 : en:00:17:19.372
00:26:53.737 : en:00:26:53.737
00:37:13.731 : en:00:37:13.731
00:44:20.950 : en:00:44:20.950
00:55:18.398 : en:00:55:18.398
01:04:46.091 : en:01:04:46.091
01:12:50.449 : en:01:12:50.449
01:22:56.555 : en:01:22:56.555
01:34:49.183 : en:01:34:49.183
01:45:44.505 : en:01:45:44.505

Скриншоты

Яндекс.Метрика
Рейтинг@Mail.ru