[ Сегодня на трекере фрилич! Идет свободное скачивание без начисления Download ]

До свидания мама (Светлана Проскурина) [2014 г., драма, DVDRip] [Лицензия]

 

Создавать темы 23-Дек-2014 15:59

-До свидания мама-- Производство: Россия
Год выпуска: 2014 г.
Жанр: драма
Продолжительность: 01:38:18-Режиссер: Светлана Проскурина-В ролях: Даумантас Цюнис, Александра Ребенок, Алексей Вертков, Диана Ганцевскайте, Мария Леонова, Яна Терешина-Описание: Алексей и Анна молодые супруги. Неожиданная встреча Анны с другим мужчиной переворачивает их семейный мир. Любимые становятся чужими, случайный попутчик самым дорогим человеком, а собственный ребенок неудобным препятствием на пути к счастью.- -Качество видео: DVDRip
Контейнер: AVI
Видео кодек: XviD
Аудио кодек: MP3
Видео: 656x368, 25,000 fps, 920 kbps avg, 0.152 bit/pixel
Аудио: 48,0 kHz, MPEG Layer 3, 2 ch, ~128.00 kbps avg
Cубтитры: отсутствуют-

Media Info

Общее
Полное имя : C:\Users\Ромик\Pictures\До свидания мама\Do.Svidaniya.Mama.2014.DVDRip.745Mb.avi
Формат : AVI
Формат/Информация : Audio Video Interleave
Размер файла : 744 Мбайт
Продолжительность : 1 ч. 38 м.
Общий поток : 1058 Кбит/сек
Название фильма : Do.Svidaniya.Mama.2014.DVDRip.745Mb.[pirat.ca]
Программа кодирования : VirtualDubMod 1.5.10.2 (build 2540/release)
Примечание : http://pirat.ca
Видео
Идентификатор : 0
Формат : MPEG-4 Visual
Профиль формата : Advanced [email protected]
Параметр BVOP формата : 2
Параметр QPel формата : Нет
Параметр GMC формата : Без точки перехода
Параметр матрицы формата : Default (MPEG)
Идентификатор кодека : XVID
Идентификатор кодека/Подсказка : XviD
Продолжительность : 1 ч. 38 м.
Битрейт : 920 Кбит/сек
Ширина : 656 пикселей
Высота : 368 пикселей
Соотношение сторон : 16:9
Частота кадров : 25,000 кадров/сек
Цветовое пространство : YUV
Субдискретизация насыщенности : 4:2:0
Битовая глубина : 8 бит
Тип развёртки : Прогрессивная
Метод сжатия : С потерями
Бит/(Пиксели*Кадры) : 0.152
Размер потока : 647 Мбайт (87%)
Библиотека кодирования : XviD 65
Аудио
Идентификатор : 1
Формат : MPEG Audio
Версия формата : Version 1
Профиль формата : Layer 3
Идентификатор кодека : 55
Идентификатор кодека/Подсказка : MP3
Продолжительность : 1 ч. 38 м.
Вид битрейта : Постоянный
Битрейт : 128 Кбит/сек
Каналы : 2 канала
Частота : 48,0 КГц
Метод сжатия : С потерями
Размер потока : 90,0 Мбайт (12%)
Выравнивание : Соединение по промежуткам
Продолжительность промежутка : 40 мс. (1,00 видеокадр)
Время предзагрузки промежутка : 504 мс.
Библиотека кодирования : LAMELAME_MAJOR_VERSI
-

Скриншоты

-
Яндекс.Метрика
Рейтинг@Mail.ru