[ Сегодня на трекере фрилич! Идет свободное скачивание без начисления Download ]

Молодежка / Сезон: 2 / Серии: 1-20 (Сергей Арланов) [2014 г., спорт, SATRip]

 

Создавать темы 23-Дек-2014 15:20

-Молодежка-- Производство: Россия
Жанр: спорт
Год выпуска: 2014 г.
Продолжительность: 00:47:00
Российская премьера: 17 ноября 2014
Режиссер: Сергей Арланов-В ролях: Денис Никифоров, Михаил Жигалов, Фёдор Бондарчук, Сергей Габриэлян, Владимир Зайцев, Сергей Комаров, Анатолий Лобоцкий, Ксения Лаврова-Глинка, Серафима Низовская, Валентина Ананьина-Описание: Наша с Вами страна постоянно славилась великолепными хоккеистами, которые приносили разные медали и победы в копилку РФ. Правда, никто не решится спорить с фактом, что хоккеистом на свет не появляются – хоккеистом становятся на тренировках и постоянных занятиях. Наверняка, все помнят, что согласно песне, в хоккей играть должны только настоящие мужчины, а трус в хоккей не играет. Что же делать, если ты трусом не являешься, но и не мужчина пока еще? О такой ситуации расскажет нам киносериал «Молодежка», который создавался отечественными режиссерами и сценаристами. По сценарию, основными персонажами являются молодые люди, которые пытаются хорошо играть в хоккей. Каждый имеет свои собственные интересы и взгляды на жизнь, что конечно же, сказывается на взаимоотношениях в команде. Следует подметить, что абсолютно каждый герой данного сериала, несмотря на свой собственный возраст имеет все необходимое, чтобы стать настоящим мужчиной. И всем им предстоит серьезная работа и борьба, потому что в команду пришел новый и перспективный тренер, планирующий чуть-чуть изменить жизнь хоккеистов и привести их к победам в турнирах. Выступают хоккеисты за хоккейную команду «Медведи». Данный клуб не может похвастаться результатами. Но после прихода нового тренера, перед командой устанавливаются самые высокие цели, которые только можно представить. Тренером этого молодого коллектива стал Макеев Сергей, который успел в прошлом в НХЛ поиграть. Решение, стать самым главным тренером стало переломным и достаточно специфичным для многих людей. И став тренером клуба «Медведи», Сергей Макеев решает привить хоккеистам такую игру, которую он желает видеть, чтобы подростки стали лидерами. И любого игрока из своего клуба, он делает мужчиной, который переносит любые удары судьбы. Собственными словами и делами, тренер постоянно говорит о важности смелости каждого хоккеиста. Он желает донести до них, что самая важная цель – в чемпионате победа, но этого будет трудно достичь или добиться. Помимо объективных причин, этому может помешать плохая атмосфера в хоккейной команде, ведь не все ребята рады этому тренеру. Любой подросток – это сложный механизм, а тем более подросток-спортсмен, у которого имеются свои собственные амбиции и интересы, которые с хоккеем не всегда связанны.-
Качество видео: SATRip
Контейнер: AVI
Видео кодек: XviD
Аудио кодек: MP3
Видео: 720x400, ~ 1500 kb/s, 25.000 fps, 0.25 Bits/Pixel
Аудио: 128 kb/s (2 ch) 48.0 KHz
Cубтитры: отсутствуют

Media Info

General
Format : AVI
Format/Info : Audio Video Interleave
File size : 645 MiB
Duration : 46mn 31s
Overall bit rate : 1 937 Kbps
Writing library : VirtualDub build 32817/release
Video
ID : 0
Format : MPEG-4 Visual
Format profile : Advanced [email protected]
Format settings, BVOP : 2
Format settings, QPel : No
Format settings, GMC : No warppoints
Format settings, Matrix : Default (MPEG)
Codec ID : XVID
Codec ID/Hint : XviD
Duration : 46mn 31s
Bit rate : 1 800 Kbps
Width : 720 pixels
Height : 400 pixels
Display aspect ratio : 16:9
Frame rate : 25.000 fps
Color space : YUV
Chroma subsampling : 4:2:0
Bit depth : 8 bits
Scan type : Progressive
Compression mode : Lossy
Bits/(Pixel*Frame) : 0.250
Stream size : 599 MiB (93%)
Writing library : XviD 1.2.1 (UTC 2008-12-04)
Audio
ID : 1
Format : MPEG Audio
Format version : Version 1
Format profile : Layer 3
Mode : Joint stereo
Codec ID : 55
Codec ID/Hint : MP3
Duration : 46mn 31s
Bit rate mode : Constant
Bit rate : 128 Kbps
Channel(s) : 2 channels
Sampling rate : 48.0 KHz
Compression mode : Lossy
Stream size : 42.6 MiB (7%)
Alignment : Split accross interleaves
Interleave, duration : 40 ms (1.00 video frame)
Interleave, preload duration : 500 ms

Скриншоты

Яндекс.Метрика
Рейтинг@Mail.ru