Родина / Homeland (Сезон 4 / Полный / Серий: 12 из 12) (Майкл Куэста / Michael Cuesta ...) [2014г., Триллер, драма, детектив, WEB-DLRip] MVO (Пифагор) + Original (Eng) + Sub (Rus, Eng)

 

Создавать темы 23-Дек-2014 15:13

Родина / Homeland
«The nation sees a hero. She sees a threat»
- Русское название: Родина
Оригинальное название: Homeland
Страна: США,
Год выпуска: 2014
Жанр: триллер, драма, детектив, ...-Премьера (мир): 2 октября 2011
Премьера (РФ): 5 июня 2013-Озвучка: Студия "Пифагор" по заказу канала Amedia
Перевод: Многоголосый закадровый, профессиональный
Оригинальный аудиопоток: английский
Субтитры: Русские полные (Амедиа)-Режиссер: Майкл Куэста / Michael Cuesta, Лесли Линка Глаттер / Lesli Linka Glatter, Кларк Джонсон / Clark Johnson ...
Актеры: Клэр Дэйнс, Дэмиэн Льюис, Мэнди Пэтинкин, Морена Баккарин, Дэвид Хэрвуд, Джексон Паке, Морган Сэйлор. Диего Клаттенхофф, Руперт Френд, Дэвид Марсиано ...-Описание фильма:
Шпионская драма продолжается. Суперинтересные первый и второй сезоны этого телешедевра уже позади, но нас ожидает новый виток сюжета. Сотрудницу ЦРУ Кэрри отправят в психлечебницу, и история сконцентрируется на семье офицера Броуди, в особенности, на его дочери, которая приняла ислам. Ну и конечно снова ожидаетсят много прослушки, перехватов, дезинформации и борьбы с терроризмом на благо Америки.-Сезон: 4
Серии: 12 из 12 серий
Продолжительность: ~ 00:48:00 мин серия-Качество видео: WEB-DLRip
Контейнер: AVI
Видео кодек: XviD
Аудио кодек: AC-3
Видео: MPEG-4 Visual at 1447 Кбит/сек: 720 x 400 (1.800) at 23.976 fps: 0.21 Бит/Пиксели
Аудио Rus: AC-3 at 192 Кбит/сек: 2 канала, 48,0 КГц |Пифагор|
Аудио Eng: AC-3 at 192 Кбит/сек: 2 канала, 48,0 КГц |Original|
Cубтитры: Русские, Английские
Формат: SRT
- -

Список серий:

  • Королева дронов (The Drone Queen)
  • Трилон и Перисфера (Trylon and Perisphere)
  • Шальвар-камиз (Shalwar Kameez)
  • Запасной вариант (Iron in the Fire)
  • Про мальчика (About a Boy)
  • Из пункта А в пункт Б и обратно (From A to B and Back Again)
  • Возвращение (Redux)
  • На полпути к пончику (Halfway to a Donut)
  • Еще что-то происходит (There's Something Else Going On)
  • 13 часов в Исламабаде (13 Hours in Islamabad)
  • Война зла (Krieg Nicht Lieb)
  • Долгое ожидание (Long Time Coming)
-

MediaInfo:

Общее
Полное имя                               : E:\_Сериалы\_Сериалы\Родина\Homeland (S04) Amedia\Homeland.s04e01.XviD.Amedia.[qqss44].avi
Формат                                   : AVI
Формат/Информация                        : Audio Video Interleave
Размер файла                             : 645 Мбайт
Продолжительность                        : 48 м.
Общий поток                              : 1845 Кбит/сек
Программа кодирования                    : VirtualDubMod 1.5.10.3 | www.virtualdub-fr.org || (build 2550/release)
Библиотека кодирования                   : VirtualDubMod build 2550/release
Видео
Идентификатор                            : 0
Формат                                   : MPEG-4 Visual
Профиль формата                          : Advanced [email protected]
Параметр BVOP формата                    : 2
Параметр QPel формата                    : Нет
Параметр GMC формата                     : Без точки перехода
Параметр матрицы формата                 : Default (MPEG)
Идентификатор кодека                     : XVID
Идентификатор кодека/Подсказка           : XviD
Продолжительность                        : 48 м.
Битрейт                                  : 1447 Кбит/сек
Ширина                                   : 720 пикселей
Высота                                   : 400 пикселей
Соотношение сторон                       : 16:9
Частота кадров                           : 23,976 кадра/сек
Цветовое пространство                    : YUV
Субдискретизация насыщенности            : 4:2:0
Битовая глубина                          : 8 бит
Тип развёртки                            : Прогрессивная
Метод сжатия                             : С потерями
Бит/(Пиксели*Кадры)                      : 0.210
Размер потока                            : 506 Мбайт (78%)
Библиотека кодирования                   : XviD 73
Аудио #1
Идентификатор                            : 1
Формат                                   : AC-3
Формат/Информация                        : Audio Coding 3
Расширение режима                        : CM (complete main)
Параметр Endianness формата              : Big
Идентификатор кодека                     : 2000
Продолжительность                        : 48 м.
Вид битрейта                             : Постоянный
Битрейт                                  : 192 Кбит/сек
Каналы                                   : 2 канала
Расположение каналов                     : Front: L R
Частота                                  : 48,0 КГц
Битовая глубина                          : 16 бит
Метод сжатия                             : С потерями
Размер потока                            : 67,0 Мбайт (10%)
Выравнивание                             : Разделение по промежуткам
Продолжительность промежутка             : 42  мс. (1,00 видеокадр)
Время предзагрузки промежутка            : 500  мс.
Аудио #2
Идентификатор                            : 2
Формат                                   : AC-3
Формат/Информация                        : Audio Coding 3
Расширение режима                        : CM (complete main)
Параметр Endianness формата              : Big
Идентификатор кодека                     : 2000
Продолжительность                        : 48 м.
Вид битрейта                             : Постоянный
Битрейт                                  : 192 Кбит/сек
Каналы                                   : 2 канала
Расположение каналов                     : Front: L R
Частота                                  : 48,0 КГц
Битовая глубина                          : 16 бит
Метод сжатия                             : С потерями
Размер потока                            : 67,1 Мбайт (10%)
Выравнивание                             : Разделение по промежуткам
Продолжительность промежутка             : 42  мс. (1,00 видеокадр)
Время предзагрузки промежутка            : 500  мс.
pirat.ca/torrent/382818/
-

Скриншот c названием фильма

-Скриншоты:
-

Еще

-

Как закачать отдельный файл

1. Открыть торрент
2. Снять галки с тех файлов торрента, которые мы не хотим закачивать. Оставляем только на нужных нам файлах (файле).
3. Нажать О.К.
В клиенте utorrent
Инструкция
1) Открыть торрент

2) Снять галки с тех файлов торрента, которые мы не хотим закачивать:
* либо вручную, снимая с каждого файла галку( скрин №1)
* либо, нажав кнопку "Снять метки (Select None)", сняв сразу со всех файлов(скрин №2)
№1

№2

Оставляем только на нужных нам файлах (файле).

3)Нажать О.К
-Добавлена двенадцатая, заключительная, серия четвертого сезона
Яндекс.Метрика
Рейтинг@Mail.ru