Черта (Вадим Дубровицкий) SATRip (сезон 1, серии 1-4 из 8) (обновляемая)[2014 г., Боевик, Приключения]

 

Создавать темы 22-Дек-2014 19:18

-Черта (2014) SATRip (сезон 1, серии 1-4 из 8) (обновляемая)- Год выпуска: 2014
Жанр: Боевик, Приключения
Продолжительность: ~00:42:00 серия
Режиссер: Вадим Дубровицкий
В ролях: Олег Мазуров, Александр Чекалин, Анна Дубровская, Станислав Любшин, Ольга Волкова, Павел Любимцев, Валентин Смирнитский, Олеся Железняк, Юрий Гурьев, Екатерина Попова, Маргарита Шилова
Описание: 1918 год. Москва изнывает под террором десятков банд, которые буквально захватили город, не встречая сопротивления властей. Бывшему матросу-балтийцу Александру Трепалову поручают возглавить вновь созданную структуру — Московский Уголовный Розыск. За короткий срок Трепалов становится героем легенд и грозой «граждан вольного города Хивы», как именовали себя бандиты Хитровки.Бывшего матроса-балтийца Александра Трепалова просят возглавить московский уголовный розыск. Первое дело - спасти Москву от голода! Хлеб в город идет эшелонами, но доходят крохи - бандиты сбрасывают мешки по дороге. Конвой не спасает, бандиты начинают воровать вагонами и даже целыми составами.
Дата российской премьеры: 25 декабря 2014
Продолжительность: ~00:42:00 серия
Качество видео: SATRip
Сэмпл: Скачать
Видеокодек: Xvid
Битрейт видео: ~1500 kbps
Размер кадра: 720х400 (16:9)
Аудиокодек: AC3
Битрейт аудио: 192 kbps, 2 ch

Mediainfo:

Общее
Полное имя : G:\Черта
Формат : AVI
Формат/Информация : Audio Video Interleave
Размер файла : 521 Мбайт
Продолжительность : 42 м.
Общий поток : 1703 Кбит/сек
Программа кодирования : VirtualDubMod 1.5.10.3 | www.virtualdub-fr.org || (build 2550/release)
Библиотека кодирования : VirtualDubMod build 2550/release
Видео
Идентификатор : 0
Формат : MPEG-4 Visual
Профиль формата : Advanced [email protected]
Параметр BVOP формата : 2
Параметр QPel формата : Нет
Параметр GMC формата : Без точки перехода
Параметр матрицы формата : Выборочная
Идентификатор кодека : XVID
Идентификатор кодека/Подсказка : XviD
Продолжительность : 42 м.
Битрейт : 1501 Кбит/сек
Ширина : 720 пикселей
Высота : 400 пикселей
Соотношение сторон : 16:9
Частота кадров : 25,000 кадров/сек
Цветовое пространство : YUV
Субдискретизация насыщенности : 4:2:0
Битовая глубина : 8 бит
Тип развёртки : Прогрессивная
Метод сжатия : С потерями
Бит/(Пиксели*Кадры) : 0.208
Размер потока : 460 Мбайт (88%)
Библиотека кодирования : XviD 73
Аудио
Идентификатор : 1
Формат : AC-3
Формат/Информация : Audio Coding 3
Расширение режима : CM (complete main)
Параметр Endianness формата : Big
Идентификатор кодека : 2000
Продолжительность : 42 м.
Вид битрейта : Постоянный
Битрейт : 192 Кбит/сек
Каналы : 2 канала
Расположение каналов : Front: L R
Частота : 48,0 КГцБитовая глубина : 16 бит
Метод сжатия : С потерями
Размер потока : 58,8 Мбайт (11%)
Выравнивание : Разделение по промежуткам
Продолжительность промежутка : 40 мс. (1,00 видеокадр)
Время предзагрузки промежутка : 500 мс.

Внимание! Раздача ведётся путём добавления новых серий

Внимание! Раздача ведётся путём добавления новых серий; при каждом добавлении создаётся новый торрент.
Чтобы начать докачку новой серии, пользователям необходимо сделать следующее:
1. Остановить скачивание;
2. Удалить старый торрент у себя из клиента (старые серии удалять не надо);
3. Скачать новый торрент и запустить его у себя в клиенте вместо старого, при этом указать клиенту путь в старую папку куда и должно происходить скачивание новых серий. Ваш клиент при этом должен произвести хеширование (проверку) старой папки и будет докачивать только те серии, которых у вас ещё нет. Старые серии при этом не удаляются, а продолжают раздаваться! Eсли вы уже удалили старые серии, то предотвратить повторную закачку старых серий можно, отжав галочку в соответствующих местах при запуске нового торрента.
Скриншоты:
Яндекс.Метрика
Рейтинг@Mail.ru