Юра Шатунов - 11 альбомов (1988-2012) [FLAC|Lossless]<Pop>

 

Создавать темы 21-Дек-2014 21:59

-Юра Шатунов - 11 альбомов (1988-2012)- -Страна-производитель дисков: Россия
Год: 1988-2012
Жанр: Pop-Кодек: FLAC
Тип рипа: image+.cue
Битрейт: Lossless-Шатунов Юрий Васильевич родился 6 сентября 1973 года, в городе Акбулаке (по другим сведениям - 06 сентября 1973 года в городе Кумертау Башкирской АССР (раннее детство провёл в деревне Савельевка под Кумертау)…
После смерти родителей был взят на воспитание своей тётей из г. Тюльган Оренбургской области. С сентября 1985 года был зачислен в Акбулакский детский дом, а через год переведён в Оренбургский интернат №2, где и началась его творческая жизнь.
На горизонте будущей звезды появился электрик Оренбургского детского дома Сергей Кузнецов, с большими планами и обещаниями. Кузнецову приходилось буквально силой заставлять Шатунова петь. Но как бы там ни было, ему все таки удалось записать несколько удачных песен которые стали приносить первые деньги.
Надо заметить, что Юра свою фамилию оправдывал полностью, как только наступала весна, он тут же сбегал из интерната. Сначала Шатунов занимался музыкой неохотно, мог явиться на репетицию прямо в коньках. В интернате у него было два увлечения: зимой - хоккей, летом - картинг.
Но постепенно у него стал проявляться интерес к музыке. При подготовке к своему первому выступлению на Новогоднем вечере в интернате Шатунов уже с большим интересом втянулся в процесс.
За короткое время была подготовлена большая музыкальная программа, Юра часами пропадал на репетициях, а также самостоятельно занялся световым оформлением дискотеки. Техника оказалась третьим из китов, на которых держался его интерес к жизни.
Первое выступление состоялось, как и планировалось, на Новогодней дискотеке в интернате, а было это 28 декабря 1986 года.

Далее&#58;

До переезда Шатунова в Москву оставались еще долгие для него полтора года. За это время Юра несколько раз уходил от Кузнецова, убегал из интерната весной и возвращался осенью.
За это время ученик 7-го класса Юра Шатунов успел записать свой первый магнитоальбом на допотопных магнитофонах в местном ДК и спеть песню, которую чуть позже вместе с ним запела вся страна - ‘Белые розы’.
После того, как магнитоальбом попал в студии звукозаписи Оренбурга, в редакции местных газет и телевидения полетели письма с просьбой рассказать о новой молодежной, никому не известной, но уже полюбившейся группе.
Песни в исполнении Юры Шатунова слушал весь Оренбург. Первая статья под названием ‘Неизвестные звезды’ появилась в местной газете ‘Комсомольское племя’. Это была первая статья про Юру, а чуть позже в интернат заглянуло и местное телевидение и взяло первое телеинтервью у будущей ‘звезды’.
В июне 1988 года запись, сделанная Кузнецовым и Шатуновым, попала, причем случайно, в руки Андрея Разина. У будущего руководителя группы план созрел молниеносно. И уже через несколько дней, имея на руках удостоверение (липовое) Министерства культуры, он ехал в Оренбург, где и стал добиваться перевода Юры в Москву.
Шатунов о грядущих переменах в своей судьбе ничего не знал, он в очередной раз сбежал из интерната и гулял себе по просторам Оренбургских степей. На поиски артиста Разин затратил больше недели, так как сначала пришлось убеждать администрацию интерната в том, что Юру ждут в Москве, оформлять его перевод, а уже потом разыскивать пропавшего солиста.
Шатунова заложили местные ребята, скрывался он недалеко от г. Тюльгана и чуть не упал со страха, когда на месте его ночевок появилось немыслимое количество начальства.
3 сентября 1988 года он впервые в своей жизни приехал в Москву и на первых днях поселился в квартире А.Разина на Лесной улице. (Уже 12 сентября 1988 года Шатунов выступает на большой сцене в городе Алма-Ата (Казахстан).
Юру оформляют и прописывают в школу-интернат № 24 г. Москвы, его опекуном становится директор этого учреждения Галина Федоровна Венедиктова. Осенью 1988 года на профессиональной аппаратуре Шатунов перезаписывает свой альбом ‘Белые розы’.
В декабре 1988 года Шатунов, уже как солист группы ‘Ласковый май’, принимает участие в ‘Международной дискотеке’, которая проходила в Лужниках.
В январе 1989 года в программе ‘Утренняя почта’ состоялась премьера клипа ‘Белые розы’, тогда же страна впервые увидела солиста ‘Ласкового мая’ на экране.
В московский 24-й интернат попадает и Сергей Серков, где старые друзья в лучах славы ‘терроризируют’ воспитателей направо и налево. Шатуновский бойцовский характер вышел наружу и показал себя во всей красе. Приходилось применять крайние меры, то есть Юрия Васильевича просто запирали в его комнате, где он нехотя, но все же учился, если не удавалось сбежать через окно.
Однако Юра все равно оставался самым обаятельным, самым веселым и предприимчивым участником группы. Неофициальным опекуном Шатунова был Аркадий Кудряшов. Это его рукой разукрашивались те незабываемые сценические костюмы Шатунова, которые приводили в шок номенклатурных работников. Кудряшов следил за тем, чтобы его подопечный вовремя укладывался спать и делал уроки.
08 марта 1989 года в спорткомплексе ‘Олимпийский’ Юрий Шатунов со своей группой ‘Ласковый май’ принимает участие в программе ‘Магия женщины’.
С 28 апреля по 02 мая 1989 года проходили сольные концерты ‘Мая’ в СК ‘Олимпийский’.
После ухода в конце 1989 года из коллектива Сергея Кузнецова, а с ним Игошина и Прико, в ‘Ласковом мае’ образовалась пустота, группа утратила свою сплоченность, да и Разин поставил все на коммерческую основу и способствовал делению студии на сотни ‘Ласковых маев’.
Шатунов, по сути дела, остался единственным настоящим участником коллектива, поэтому под руководством Кудряшова он разъезжал по стране без всех остальных музыкантов.
Единственное место, где можно было видеть всех вместе, это - шоу-ревю ‘Белые розы - белой зимой’ (декабрь-январь 1990 и 1991 годов). Была еще подобная программа в январе 1992 года, но это было небольшой пародией на прошлые концерты, можно даже смело сказать - это был последний аккорд группы ‘Ласковый май’, но к этому мы еще вернемся.
А пока в 1989 году у Юрия Шатунова выходит еще два альбома: один совместно с А.Разиным ‘Месяц июль’, а второй сольный - ‘Розовый вечер’. В марте 1989 года была выпущена первая пластинка на фирме ‘Мелодия’. В конце 1989 года Ю.Шатунов был назван самым популярным человеком года. 16 января 1990 года в радиопрограмме ‘Вертикаль’ состоялось его интервью совместно с А.Кудряшовым.
По телевидению днем и ночью идут клипы на песни Шатунова: ‘Розовый вечер’, ‘Тающий снег’, ‘Лето’ и другие. 06 ноября 1990 года по ЦТ в программе ‘Компас роста’ было показано первое телеинтервью Ю.Шатунова, записанное еще в Оренбурге.
В 1990 году вышел очередной альбом под названием ‘Метель в чужом городе’.
Скоро в жизни Шатунова произошло еще одно важное событие - 01 мая 1991 года в 13 часов 10 минут во Владимирском Кафедральном соборе г. Киева Юра крестился. И, как он сказал потом, ‘Это был его обдуманный шаг’.
Однако не все так гладко и ровно шло в ‘Ласковом мае’. Повзрослевший Юра за время своей музыкальной карьеры набрался большого опыта. Он выучился, мог сам сочинять музыку, узнал азы шоу-бизнеса. Его душе требовался простор, ему нужны были новые идеи, новые направления в музыке и рамки ‘ЛМ’ стали для него слишком тесными.
А.Разин, как мог, выскочку-солиста зажимал. В афишах имя Ю.Шатунова указывалось постоянно, однако Юры на концертах не бывало. Лишь красноречивый Разин трогательно рассказывал о том, как Шатунов переживает ‘ломку голоса’, или он ‘ногу сломал’, ну и так далее.
Чашу терпения переполнили концерты в Минске, последние шоу ‘Белые розы - белой зимой’, после которых Шатунову недоплатили примерно половину гонорара, да еще отобрали паспорт и всю фонограмму.
Юрий Шатунов в феврале 1992 года уходит из ‘Ласкового мая’, а с его уходом группа и вовсе перестает существовать. Начинается череда разборок с А.Разиным. В августе 1992 года Шатунов, проживающий в городе Сочи, в своем особняке, построенным еще в 1989 году, в программе ‘1000С’ дает интервью уже как свободная личность, где, кстати, обвинил публично А.Разина в присвоении творческого материала. Осенью 1992 года Шатунову вернули только паспорт.
Юра занялся сольной карьерой, а его продюсером становится А.Кудряшов. Юра записывает сольный альбом с символическим названием ‘Вот и кончился май’, однако, потом альбом был переименован в ‘Знаешь’, в широкие массы первый сольный Шатуновский альбом вышел лишь в 1993 году.
В декабре 1992 года Юрий Шатунов получает приглашение от А.Б.Пугачевой принять участие в ее ‘Рождественских встречах’. Юра соглашается и в конце декабря впервые выходит на сцену сольно с абсолютно новой песней ‘Звездная ночь’.
Однако от дальнейшего сотрудничества с примадонной бывший солист ‘ЛМ’ отказался, мотивируя тем, что ему надоело работать под чьим-либо командованием, ему хочется делать все самому, дать простор для собственного творчества.
Его желаниям помешали непредвиденные обстоятельства: Юра заболел и попал в больницу на два месяца. Январь и февраль 1993 года певец провел на койке Центральной Клинической больницы с острым гастритом, туда же по злому року угодил и его продюсер Кудряшов.
Весной, после выхода из клиники друзья были заняты обустройством собственного быта, ведь после окончания интерната жить Шатунову было практически негде. Мытарства кончились летом, когда Юра, наконец-то, получил квартиру в Москве.
Все складывалось удачно, казалось, что уже ничто не мешает артисту заниматься любимым делом. Но нет, жизнь постоянно преподносит сюрпризы и чаще всего - неприятные. Так 29 сентября 1993 года у подъезда дома Ю.Шатунова был застрелен его лучший друг, один из немногих оставшийся из ‘Ласкового мая’, клавишник Михаил Сухомлинов.
Трагедия произошла на глазах у Шатунова, это надолго оставило след в его душе. В таком состоянии работать Юра, конечно, не мог, и после похорон А.Кудряшов увозит его на дачу в Сочи. На природе у Черного моря певец успокоился, к нему вернулось душевное равновесие и желание петь.
В начале 1994 года ребята возвращаются в Москву. Одна из крупнейших в России студий звукозаписи, а именно - фирма ‘Polygram’ предложила сотрудничество Шатунову. Переговоры прошли быстро, и через несколько дней артист подписал контракт с Борисом Зосимовым.
Спонсором нового проекта стала Всероссийская Партия Большинства под руководством Феликса Емелина. Началась напряженная работа, в первую очередь она заключалась, конечно же, в записи нового альбома. В него вошли 10 песен, в том числе и новый супер-хит ‘Звездная ночь’.
На эту песню был снят клип с участием модели ‘Red-Stars’ Полины Ташевой, второй клип был снят уже на песню ‘И упав на колени’, премьера клипа состоялась в конце лета - начале осени 1994 года. Существовал еще и третий клип ‘Чужая боль’, так же с участием П.Ташевой, но из-за случайной порчи пленки, в эфир он так и не вышел.
В сентябре 1994 года состоялась презентация нового альбома Шатунова ‘Ты помнишь:’. Торжество проходило у входа в магазин ‘Мелодия’ на Арбате. К несчастью, Ю.Шатунов в это время болел и проходил санаторно-курортное лечение в Сочи. Однако, хоть и не на 100%, но все остались довольны. Фанаты получили кучу плакатов с изображением кумира. Фирмой ‘Polygram’ был объявлен конкурс ‘Один день с Юрием Шатуновым’. Розыгрыш происходил в телевизионной программе ‘У Ксюши’, куда Юрий Васильевич приглашался целых три раза.
4 марта 1995 года в ‘Палас отеле’ была встреча победительниц-фанаток и их кумира. Девчонки и мальчишки получили на память музыкальные центры, плакаты, газету ‘Белые розы’, автографы, сфотографировались с артистом и поучаствовали в его пресс-конференции, после чего начался праздничный фуршет.
24 июня 1995 года он играл в футбол в команде звезд эстрады в г. Перми, был в Риге, Сочи, Орле, Ставрополе, Оренбурге: В сентябре 1995 года ездил на гастроли в Германию, где дал 20 концертов.
В 1996 году Шатунов неожиданно помирился с Разиным. До этого момента ни с кем из ‘ЛМ’ Юра не общался, за исключением редких телефонных звонков. Однако время лечит, и бывшие коллеги объединились, чтобы поддержать лидера Коммунистической партии России Геннадия Андреевича Зюганова на президентских выборах. Все вместе они выступили перед большим числом молодежи 02 апреля 1996 года в ‘Театре на Таганке’.
1 июня 1996 года Юра дал сольный концерт в г. Риге (Латвия). Однако после этого тяга к творчеству несколько ослабла. Летом 1996 года Шатунов стал себя пробовать в роли бизнесмена и, судя по купленной иномарке, весьма удачно.
В середине 1996 года уже на студии Игоря Бабенко Ю.Шатунов пытался круто изменить свой имидж, он решил выпустить альбом ремиксов и сделаться рейвером. Альбом под названием ‘Искусственное дыхание’ с ремиксами на старые песни вышел в начале 1997 года.
В марте 1997 года Ю. Шатунов заключает контракт с Борисом Рожанским и его студией, но уже не как певец, а как партнер по бизнесу, и вместе с А.Кудряшовым переезжает в Иркутск.
Постоянно совмещая работу и творчество, Юра иногда появляется на сцене, чаще всего в Ставрополе (где организатором шоу выступает А. Разин), Иркутске, Ангарске, Братске:
В 2001-2004 г. Юрий Шатунов выпускает альбомы, снимается в клипах, триумфально гастролирует по стране, он частый гость на радио и телевидении…
-

Треклист&#58;

1988 - Ласковый Май - CD 1

Трек лист:
01. Белые розы (05:42)
02. Я откровенен только лишь с луною (03:54)
03. Лето (03:26)
04. Тающий снег (05:39)
05. Ну, что же ты... (04:49)
06. Медленно уходит осень (05:02)
07. Месяц июль (04:40)
08. Всё (06:29)
09. Бездомный пес (05:11)
10. Взрослые (06:05)
Продолжительность: 00:51:01

Отчёт ЕАС&#58;

Exact Audio Copy V0.99 prebeta 5 from 4. May 2009
Отчёт EAC об извлечении, выполненном 18. апреля 2010, 0:15
Ласковый Май / Оригинальные записи 1988-1989 - CD 1
Дисковод: PIONEER DVD-RW  DVR-212   Adapter: 8  ID: 0
Режим чтения                 : Достоверность
Использование точного потока : Да
Отключение кэша аудио        : Да
Использование указателей C2  : Нет
Коррекция смещения при чтении                     : 48
Способность читать области Lead-in и Lead-out     : Нет
Заполнение пропущенных сэмплов тишиной            : Да
Удаление блоков с тишиной в начале и конце        : Нет
При вычислениях CRC использовались нулевые сэмплы : Да
Интерфейс                                         : Установленный внешний ASPI-интерфейс
Выходной формат : Внутренние WAV-операции
Формат сэмплов  : 44.100 Гц; 16 бит; стерео
TOC извлечённого CD
     Трек |   Старт  | Длительность | Начальный сектор | Конечный сектор
    ---------------------------------------------------------------------
       1  |  0:00.00 |    5:42.25   |           0      |      25674
       2  |  5:42.25 |    3:54.06   |       25675      |      43230
       3  |  9:36.31 |    3:26.58   |       43231      |      58738
       4  | 13:03.14 |    5:39.13   |       58739      |      84176
       5  | 18:42.27 |    4:49.52   |       84177      |     105903
       6  | 23:32.04 |    5:02.30   |      105904      |     128583
       7  | 28:34.34 |    4:40.50   |      128584      |     149633
       8  | 33:15.09 |    6:29.42   |      149634      |     178850
       9  | 39:44.51 |    5:11.36   |      178851      |     202211
      10  | 44:56.12 |    6:05.22   |      202212      |     229608
      11  | 53:33.34 |    0:54.37   |      241009      |     245095
Характеристики диапазона извлечения и сообщения об ошибках
Выбранный диапазон
     Имя файла B:\MP 3\Юрий Шатунов (FLAC)\Ласковый Май - Оригинальные записи 1988-1989 (2 CD) (2010)\CD 1\Ласковый Май - Оригинальные записи 1988-1989 - CD 1.wav
     Пиковый уровень 95.4 %
     Качество диапазона 100.0 %
     CRC теста B2B2E6A2
     CRC копии B2B2E6A2
     Копирование... OK
Ошибок не произошло
AccurateRip: сводка
Трек  1  нет в базе данных
Трек  2  нет в базе данных
Трек  3  нет в базе данных
Трек  4  нет в базе данных
Трек  5  нет в базе данных
Трек  6  нет в базе данных
Трек  7  нет в базе данных
Трек  8  нет в базе данных
Трек  9  нет в базе данных
Трек 10  нет в базе данных
Ни одного трека нет в базе AccurateRip
Конец отчёта

Отчёт auCDtect Task manager

-----------------------
DON'T MODIFY THIS FILE
-----------------------
PERFORMER: auCDtect Task Manager, ver. 1.6.0 RC1 build 1.6.0.1
Copyright (c) 2008-2010 y-soft. All rights reserved
http://y-soft.org
ANALYZER: auCDtect: CD records authenticity detector, version 0.8.2
Copyright (c) 2004 Oleg Berngardt. All rights reserved.
Copyright (c) 2004 Alexander Djourik. All rights reserved.
FILE: Ласковый Май - Оригинальные записи 1988-1989 - CD 1.flac
  Size: 385489235 Hash: EF6C88B85AD70A866D543E50AC2F7676 Accuracy: -m0
  Conclusion: MPEG 95%
  Signature: 06D3F5729250A0EBD34E1FAA87351912FE8D4A52

1988 - Ласковый Май - CD 2

Трек лист:
01. Седая ночь (06:57)
02. Пусть будет ночь (05:07)
03. Розовый вечер (04:07)
04. Метель в чужом городе (08:05)
05. Глупые снежинки (06:08)
06. Ты просто был (06:39)
07. Осенний парк (06:32)
08. А я (04:48)
09. Ради тебя (05:29)
10. Телефонный роман (04:16)
Продолжительность: 00:58:12

Отчёт ЕАС&#58;

Exact Audio Copy V0.99 prebeta 5 from 4. May 2009
Отчёт EAC об извлечении, выполненном 18. апреля 2010, 1:14
Ласковый Май / Оригинальные записи 1988-1989 - CD 2
Дисковод: PIONEER DVD-RW  DVR-212   Adapter: 8  ID: 0
Режим чтения                 : Достоверность
Использование точного потока : Да
Отключение кэша аудио        : Да
Использование указателей C2  : Нет
Коррекция смещения при чтении                     : 48
Способность читать области Lead-in и Lead-out     : Нет
Заполнение пропущенных сэмплов тишиной            : Да
Удаление блоков с тишиной в начале и конце        : Нет
При вычислениях CRC использовались нулевые сэмплы : Да
Интерфейс                                         : Установленный внешний ASPI-интерфейс
Выходной формат : Внутренние WAV-операции
Формат сэмплов  : 44.100 Гц; 16 бит; стерео
TOC извлечённого CD
     Трек |   Старт  | Длительность | Начальный сектор | Конечный сектор
    ---------------------------------------------------------------------
       1  |  0:00.00 |    6:57.54   |           0      |      31328
       2  |  6:57.54 |    5:07.01   |       31329      |      54354
       3  | 12:04.55 |    4:07.50   |       54355      |      72929
       4  | 16:12.30 |    8:05.32   |       72930      |     109336
       5  | 24:17.62 |    6:08.27   |      109337      |     136963
       6  | 30:26.14 |    6:39.24   |      136964      |     166912
       7  | 37:05.38 |    6:32.28   |      166913      |     196340
       8  | 43:37.66 |    4:48.01   |      196341      |     217941
       9  | 48:25.67 |    5:29.32   |      217942      |     242648
      10  | 53:55.24 |    4:16.54   |      242649      |     261902
      11  | 60:44.03 |    0:49.16   |      273303      |     276993
Характеристики диапазона извлечения и сообщения об ошибках
Выбранный диапазон
     Имя файла B:\MP 3\Юрий Шатунов (FLAC)\Ласковый Май - Оригинальные записи 1988-1989 (2 CD) (2010)\CD 2\Ласковый Май - Оригинальные записи 1988-1989 - CD 2.wav
     Пиковый уровень 95.5 %
     Качество диапазона 100.0 %
     CRC теста 533656AB
     CRC копии 533656AB
     Копирование... OK
Ошибок не произошло
AccurateRip: сводка
Трек  1  нет в базе данных
Трек  2  нет в базе данных
Трек  3  нет в базе данных
Трек  4  нет в базе данных
Трек  5  нет в базе данных
Трек  6  нет в базе данных
Трек  7  нет в базе данных
Трек  8  нет в базе данных
Трек  9  нет в базе данных
Трек 10  нет в базе данных
Ни одного трека нет в базе AccurateRip
Конец отчёта

Отчёт auCDtect Task manager

-----------------------
DON'T MODIFY THIS FILE
-----------------------
PERFORMER: auCDtect Task Manager, ver. 1.6.0 RC1 build 1.6.0.1
Copyright (c) 2008-2010 y-soft. All rights reserved
http://y-soft.org
ANALYZER: auCDtect: CD records authenticity detector, version 0.8.2
Copyright (c) 2004 Oleg Berngardt. All rights reserved.
Copyright (c) 2004 Alexander Djourik. All rights reserved.
FILE: Ласковый Май - Оригинальные записи 1988-1989 - CD 2.flac
  Size: 440165573 Hash: 40E27D59B082C60184B16CC21824FE00 Accuracy: -m0
  Conclusion: CDDA 100%
  Signature: E54992AA6970EFD617971CD286A6D6D5BE3E8333

1994 - Ты помнишь

Трек лист:
01. Звездная ночь (04:17)
02. Клянусь (04:18)
03. Чужая боль (06:59)
04. Письмо (06:16)
05. Мама (06:00)
06. И упав на колени (04:15)
07. Старый дом (05:55)
08. Утренний снег (06:04)
09. Беглец (06:47)
10. Детский дом (04:35)
Продолжительность: 00:55:30

Отчёт ЕАС&#58;

Exact Audio Copy V0.99 prebeta 5 from 4. May 2009
Отчёт EAC об извлечении, выполненном 14. апреля 2010, 19:05
Юрий Шатунов / Ты помнишь...
Дисковод: PIONEER DVD-RW  DVR-212   Adapter: 8  ID: 0
Режим чтения                 : Достоверность
Использование точного потока : Да
Отключение кэша аудио        : Да
Использование указателей C2  : Нет
Коррекция смещения при чтении                     : 48
Способность читать области Lead-in и Lead-out     : Нет
Заполнение пропущенных сэмплов тишиной            : Да
Удаление блоков с тишиной в начале и конце        : Нет
При вычислениях CRC использовались нулевые сэмплы : Да
Интерфейс                                         : Установленный внешний ASPI-интерфейс
Выходной формат : Внутренние WAV-операции
Формат сэмплов  : 44.100 Гц; 16 бит; стерео
TOC извлечённого CD
     Трек |   Старт  | Длительность | Начальный сектор | Конечный сектор
    ---------------------------------------------------------------------
       1  |  0:00.33 |    4:17.20   |          33      |      19327
       2  |  4:17.53 |    4:18.00   |       19328      |      38677
       3  |  8:35.53 |    6:59.25   |       38678      |      70127
       4  | 15:35.03 |    6:16.25   |       70128      |      98352
       5  | 21:51.28 |    6:00.15   |       98353      |     125367
       6  | 27:51.43 |    4:15.25   |      125368      |     144517
       7  | 32:06.68 |    5:55.57   |      144518      |     171199
       8  | 38:02.50 |    6:04.68   |      171200      |     198567
       9  | 44:07.43 |    6:47.55   |      198568      |     229147
      10  | 50:55.23 |    4:35.35   |      229148      |     249807
Характеристики диапазона извлечения и сообщения об ошибках
Выбранный диапазон
     Имя файла B:\MP 3\Юрий Шатунов (FLAC)\Юрий Шатунов - Ты помнишь... (1995)\Юрий Шатунов - Ты помнишь.wav
     Пиковый уровень 100.0 %
     Качество диапазона 100.0 %
     CRC теста 8983410A
     CRC копии 8983410A
     Копирование... OK
Ошибок не произошло
AccurateRip: сводка
Трек  1  нет в базе данных
Трек  2  нет в базе данных
Трек  3  нет в базе данных
Трек  4  нет в базе данных
Трек  5  нет в базе данных
Трек  6  нет в базе данных
Трек  7  нет в базе данных
Трек  8  нет в базе данных
Трек  9  нет в базе данных
Трек 10  нет в базе данных
Ни одного трека нет в базе AccurateRip
Конец отчёта

Отчёт auCDtect Task manager

-----------------------
DON'T MODIFY THIS FILE
-----------------------
PERFORMER: auCDtect Task Manager, ver. 1.6.0 RC1 build 1.6.0.1
Copyright (c) 2008-2010 y-soft. All rights reserved
http://y-soft.org
ANALYZER: auCDtect: CD records authenticity detector, version 0.8.2
Copyright (c) 2004 Oleg Berngardt. All rights reserved.
Copyright (c) 2004 Alexander Djourik. All rights reserved.
FILE: Юрий Шатунов - Ты помнишь.flac
  Size: 324172919 Hash: 55AF52FC4E2CD29C3C392495B5E4D2FC Accuracy: -m0
  Conclusion: CDDA 100%
  Signature: 5CA21FA35AE72F9BAA02AE977667EC7557A99DD9

1997 - Белые розы

Трек лист:
01. Белые розы (05:45)
02. Я откровенен только лишь с луною (04:00)
03. Лето (03:29)
04. Тающий снег (05:44)
05. Седая ночь (07:03)
06. Ну,что же ты (04:52)
07. Все... (06:32)
08. Медленно уходит осень (05:41)
09. Телефонный роман (04:17)
10. Пусть будет ночь (05:09)
11. Взрослые (06:06)
12. Месяц июль (04:39)
Продолжительность: 01:03:22

Отчёт ЕАС&#58;

Exact Audio Copy V0.99 prebeta 4 from 23. January 2008
Отчёт EAC об извлечении, выполненном 17. января 2009, 17:31
Юра Шатунов / Белые розы
Дисковод: ASUS    DRW-1814BL   Adapter: 3  ID: 0
Режим чтения                 : Достоверность
Использование точного потока : Да
Отключение кэша аудио        : Да
Использование указателей C2  : Нет
Коррекция смещения при чтении                     : 6
Способность читать области Lead-in и Lead-out     : Нет
Заполнение пропущенных сэмплов тишиной            : Да
Удаление блоков с тишиной в начале и конце        : Нет
При вычислениях CRC использовались нулевые сэмплы : Да
Интерфейс                                         : Встроенный Win32-интерфейс для Win NT/2000
Выходной формат : Внутренние WAV-операции
Формат сэмплов  : 44.100 Гц; 16 бит; стерео
TOC извлечённого CD
     Трек |   Старт  | Длительность | Начальный сектор | Конечный сектор
    ---------------------------------------------------------------------
       1  |  0:00.38 |    5:45.22   |          38      |      25934
       2  |  5:45.60 |    4:00.50   |       25935      |      43984
       3  |  9:46.35 |    3:29.33   |       43985      |      59692
       4  | 13:15.68 |    5:44.55   |       59693      |      85547
       5  | 19:00.48 |    7:03.40   |       85548      |     117312
       6  | 26:04.13 |    4:52.60   |      117313      |     139272
       7  | 30:56.73 |    6:32.02   |      139273      |     168674
       8  | 37:29.00 |    5:41.50   |      168675      |     194299
       9  | 43:10.50 |    4:17.40   |      194300      |     213614
      10  | 47:28.15 |    5:09.23   |      213615      |     236812
      11  | 52:37.38 |    6:06.10   |      236813      |     264272
      12  | 58:43.48 |    4:39.27   |      264273      |     285224
Характеристики диапазона извлечения и сообщения об ошибках
Выбранный диапазон
     Имя файла D:\Юра Шатунов\2000.Белые розы\Юра Шатунов - Белые розы.wav
     Пиковый уровень 90.4 %
     Качество диапазона 100.0 %
     CRC теста 502D7D79
     CRC копии 502D7D79
     Копирование... OK
Ошибок не произошло
AccurateRip: сводка
Трек  1  нет в базе данных
Трек  2  нет в базе данных
Трек  3  нет в базе данных
Трек  4  нет в базе данных
Трек  5  нет в базе данных
Трек  6  нет в базе данных
Трек  7  нет в базе данных
Трек  8  нет в базе данных
Трек  9  нет в базе данных
Трек 10  нет в базе данных
Трек 11  нет в базе данных
Трек 12  нет в базе данных
Ни одного трека нет в базе AccurateRip
Конец отчёта

Отчёт auCDtect Task manager&#58;

-----------------------
DON'T MODIFY THIS FILE
-----------------------
PERFORMER: auCDtect Task Manager, ver. 1.6.0 RC1 build 1.6.0.1
Copyright (c) 2008-2010 y-soft. All rights reserved
http://y-soft.org
ANALYZER: auCDtect: CD records authenticity detector, version 0.8.2
Copyright (c) 2004 Oleg Berngardt. All rights reserved.
Copyright (c) 2004 Alexander Djourik. All rights reserved.
FILE: Юра Шатунов - Белые розы.flac
  Size: 438775694 Hash: F50AE1E107D3A3CF6EED2742A7A480A6 Accuracy: -m0
  Conclusion: CDDA 100%
  Signature: 20F408768A023C4943B8C217CFDCF826B24F6E8E

1997 - Розовый вечер

Трек лист:
01. Розовый вечер (04:10)
02. Метель в чужом городе (08:09)
03. Глупые снежинки (06:11)
04. Ты просто был (06:44)
05. Дождь (04:50)
06. Осенний парк (06:35)
07. Ради тебя (05:31)
08. Всё напрасно (05:10)
09. Закрой за мной дверь (04:32)
10. Девочка моей мечты (05:15)
11. Детство (04:14)
12. Бездомный пёс (05:14)
Продолжительность: 01:06:38

Отчёт ЕАС&#58;

Exact Audio Copy V0.99 prebeta 5 from 4. May 2009
Отчёт EAC об извлечении, выполненном 23. января 2010, 21:34
Юра Шатунов / Розовый вечер
Дисковод: ASUS    DRW-1814BL   Adapter: 1  ID: 0
Режим чтения                 : Достоверность
Использование точного потока : Да
Отключение кэша аудио        : Да
Использование указателей C2  : Нет
Коррекция смещения при чтении                     : 6
Способность читать области Lead-in и Lead-out     : Нет
Заполнение пропущенных сэмплов тишиной            : Да
Удаление блоков с тишиной в начале и конце        : Нет
При вычислениях CRC использовались нулевые сэмплы : Да
Интерфейс                                         : Установленный внешний ASPI-интерфейс
Выходной формат : Внутренние WAV-операции
Формат сэмплов  : 44.100 Гц; 16 бит; стерео
TOC извлечённого CD
     Трек |   Старт  | Длительность | Начальный сектор | Конечный сектор
    ---------------------------------------------------------------------
       1  |  0:00.00 |    4:10.10   |           0      |      18759
       2  |  4:10.10 |    8:09.20   |       18760      |      55454
       3  | 12:19.30 |    6:11.05   |       55455      |      83284
       4  | 18:30.35 |    6:44.07   |       83285      |     113591
       5  | 25:14.42 |    4:50.08   |      113592      |     135349
       6  | 30:04.50 |    6:35.32   |      135350      |     165006
       7  | 36:40.07 |    5:31.63   |      165007      |     189894
       8  | 42:11.70 |    5:10.30   |      189895      |     213174
       9  | 47:22.25 |    4:32.47   |      213175      |     233621
      10  | 51:54.72 |    5:15.08   |      233622      |     257254
      11  | 57:10.05 |    4:14.17   |      257255      |     276321
      12  | 61:24.22 |    5:14.23   |      276322      |     299894
Характеристики диапазона извлечения и сообщения об ошибках
Выбранный диапазон
     Имя файла D:\Юра Шатунов\1996.Розовый вечер\Юра Шатунов - Розовый вечер.wav
     Пиковый уровень 97.0 %
     Качество диапазона 100.0 %
     CRC теста EF240F61
     CRC копии EF240F61
     Копирование... OK
Ошибок не произошло
AccurateRip: сводка
Трек  1  нет в базе данных
Трек  2  нет в базе данных
Трек  3  нет в базе данных
Трек  4  нет в базе данных
Трек  5  нет в базе данных
Трек  6  нет в базе данных
Трек  7  нет в базе данных
Трек  8  нет в базе данных
Трек  9  нет в базе данных
Трек 10  нет в базе данных
Трек 11  нет в базе данных
Трек 12  нет в базе данных
Ни одного трека нет в базе AccurateRip
Конец отчёта

Отчёт auCDtect Task manager&#58;

-----------------------
DON'T MODIFY THIS FILE
-----------------------
PERFORMER: auCDtect Task Manager, ver. 1.6.0 RC1 build 1.6.0.1
Copyright (c) 2008-2010 y-soft. All rights reserved
http://y-soft.org
ANALYZER: auCDtect: CD records authenticity detector, version 0.8.2
Copyright (c) 2004 Oleg Berngardt. All rights reserved.
Copyright (c) 2004 Alexander Djourik. All rights reserved.
FILE: Юра Шатунов - Розовый вечер.flac
  Size: 459009414 Hash: E2E141D7B17392C53BF03A80D54B8E91 Accuracy: -m0
  Conclusion: CDDA 100%
  Signature: DF7E2BE78339F6562EE47A1D72BF7CC573787C43

2001 - Вспомни май

Трек лист:
01. Забудь (03:22)
02. Лето (03:41)
03. Твой дневник (04:05)
04. Напиши (03:32)
05. Государство детство (03:50)
06. Я теряю (03:06)
07. Вспомни (03:24)
08. Я не люблю этот парк (04:45)
09. Я перессорился с дождем (04:15)
10. Вечер вдвоем (03:15)
11. Листопад (02:24)
Продолжительность: 00:39:42

Отчёт ЕАС&#58;

Exact Audio Copy V0.99 prebeta 4 from 23. January 2008
Отчёт EAC об извлечении, выполненном 1. декабря 2008, 23:05
Юра Шатунов / Вспомни май
Дисковод: ASUS    DRW-1814BL   Adapter: 3  ID: 0
Режим чтения                 : Достоверность
Использование точного потока : Да
Отключение кэша аудио        : Да
Использование указателей C2  : Нет
Коррекция смещения при чтении                     : 6
Способность читать области Lead-in и Lead-out     : Нет
Заполнение пропущенных сэмплов тишиной            : Да
Удаление блоков с тишиной в начале и конце        : Нет
При вычислениях CRC использовались нулевые сэмплы : Да
Интерфейс                                         : Установленный внешний ASPI-интерфейс
Выходной формат : Внутренние WAV-операции
Формат сэмплов  : 44.100 Гц; 16 бит; стерео
TOC извлечённого CD
     Трек |   Старт  | Длительность | Начальный сектор | Конечный сектор
    ---------------------------------------------------------------------
       1  |  0:00.00 |    3:22.31   |           0      |      15180
       2  |  3:22.31 |    3:41.18   |       15181      |      31773
       3  |  7:03.49 |    4:05.16   |       31774      |      50164
       4  | 11:08.65 |    3:32.61   |       50165      |      66125
       5  | 14:41.51 |    3:50.06   |       66126      |      83381
       6  | 18:31.57 |    3:06.07   |       83382      |      97338
       7  | 21:37.64 |    3:24.44   |       97339      |     112682
       8  | 25:02.33 |    4:45.06   |      112683      |     134063
       9  | 29:47.39 |    4:15.00   |      134064      |     153188
      10  | 34:02.39 |    3:15.06   |      153189      |     167819
      11  | 37:17.45 |    2:24.65   |      167820      |     178684
Характеристики диапазона извлечения и сообщения об ошибках
Выбранный диапазон
     Имя файла D:\Юра Шатунов\2001.Вспомни май\Юра Шатунов - Вспомни май.wav
     Пиковый уровень 99.1 %
     Качество диапазона 100.0 %
     CRC теста 53309A76
     CRC копии 53309A76
     Копирование... OK
Ошибок не произошло
Конец отчёта

Отчёт auCDtect Task manager&#58;

-----------------------
DON'T MODIFY THIS FILE
-----------------------
PERFORMER: auCDtect Task Manager, ver. 1.6.0 RC1 build 1.6.0.1
Copyright (c) 2008-2010 y-soft. All rights reserved
http://y-soft.org
ANALYZER: auCDtect: CD records authenticity detector, version 0.8.2
Copyright (c) 2004 Oleg Berngardt. All rights reserved.
Copyright (c) 2004 Alexander Djourik. All rights reserved.
FILE: Юра Шатунов - Вспомни май.flac
  Size: 286184553 Hash: D7605D83A22DD5FAD5B547D78A2E8493 Accuracy: -m0
  Conclusion: CDDA 100%
  Signature: BDB769062FB2F67297F0B869639FE8C1BB4EA6CC

2002 - Седая ночь

Трек лист:
01. Седая ночь (05:36)
02. Что же ты,лето? (04:46)
03. Фенечка (03:50)
04. Медленно уходит осень (05:07)
05. Вечер холодной зимы (05:14)
06. Падают листья (03:35)
07. Снег в сентябре (04:01)
08. Облако ночь (04:17)
09. Детство (03:37)
10. Цветы (04:22)
11. Этот вечер (03:59)
12. Я теряю (remix 2002) (03:24)
13. Забудь (remix 2002) (04:16)
Продолжительность: 00:59:09

Отчёт ЕАС&#58;

Exact Audio Copy V0.99 prebeta 4 from 23. January 2008
Отчёт EAC об извлечении, выполненном 2. декабря 2008, 5:48
Юра Шатунов / Седая ночь
Дисковод: ASUS    DRW-1814BL   Adapter: 3  ID: 0
Режим чтения                 : Достоверность
Использование точного потока : Да
Отключение кэша аудио        : Да
Использование указателей C2  : Нет
Коррекция смещения при чтении                     : 6
Способность читать области Lead-in и Lead-out     : Нет
Заполнение пропущенных сэмплов тишиной            : Да
Удаление блоков с тишиной в начале и конце        : Нет
При вычислениях CRC использовались нулевые сэмплы : Да
Интерфейс                                         : Установленный внешний ASPI-интерфейс
Выходной формат : Внутренние WAV-операции
Формат сэмплов  : 44.100 Гц; 16 бит; стерео
TOC извлечённого CD
     Трек |   Старт  | Длительность | Начальный сектор | Конечный сектор
    ---------------------------------------------------------------------
       1  |  0:00.00 |    5:36.69   |           0      |      25268
       2  |  5:36.69 |    4:46.15   |       25269      |      46733
       3  | 10:23.09 |    3:50.19   |       46734      |      64002
       4  | 14:13.28 |    5:07.26   |       64003      |      87053
       5  | 19:20.54 |    5:14.38   |       87054      |     110641
       6  | 24:35.17 |    3:35.14   |      110642      |     126780
       7  | 28:10.31 |    4:01.57   |      126781      |     144912
       8  | 32:12.13 |    4:17.68   |      144913      |     164255
       9  | 36:30.06 |    3:37.04   |      164256      |     180534
      10  | 40:07.10 |    4:22.31   |      180535      |     200215
      11  | 44:29.41 |    3:59.09   |      200216      |     218149
      12  | 48:28.50 |    3:24.55   |      218150      |     233504
      13  | 51:53.30 |    4:16.01   |      233505      |     252705
Характеристики диапазона извлечения и сообщения об ошибках
Выбранный диапазон
     Имя файла C:\Documents and Settings\Игорь\Рабочий стол\Новая папка (13)\Новая папка\Юра Шатунов - Седая ночь.wav
     Пиковый уровень 99.2 %
     Качество диапазона 99.9 %
     CRC теста 7924DD99
     CRC копии 7924DD99
     Копирование... OK
Ошибок не произошло
Конец отчёта

Отчёт auCDtect Task manager&#58;

-----------------------
DON'T MODIFY THIS FILE
-----------------------
PERFORMER: auCDtect Task Manager, ver. 1.6.0 RC1 build 1.6.0.1
Copyright (c) 2008-2010 y-soft. All rights reserved
http://y-soft.org
ANALYZER: auCDtect: CD records authenticity detector, version 0.8.2
Copyright (c) 2004 Oleg Berngardt. All rights reserved.
Copyright (c) 2004 Alexander Djourik. All rights reserved.
FILE: Юра Шатунов - Седая ночь.flac
  Size: 421952145 Hash: EB54E4E50CEAC1D9387DBA8F5CB50243 Accuracy: -m0
  Conclusion: CDDA 100%
  Signature: 6E50F24CEDE4905E6A5C611BB08D816351DE5E29

2003 - Падают листья

Трек лист:
01. Я не люблю этот парк (remix 2002) (04:01)
02. Падают листья (remix 2002) (03:31)
03. Седая ночь (05:35)
04. Вспомни (03:24)
05. Детство (03:35)
06. Вечер вдвоем (03:13)
07. Я теряю (remix 2002) (03:21)
08. Забудь (remix 2002) (04:13)
09. Я пересорился с дождем (04:13)
10. Вечер холодной зимы (05:10)
11. Твой дневник (04:05)
12. Фенечка (03:48)
13. Медленно уходит осень (05:04)
Продолжительность: 00:53:21

Отчёт ЕАС&#58;

Exact Audio Copy V0.99 prebeta 5 from 4. May 2009
Отчёт EAC об извлечении, выполненном 4. ноября 2009, 11:09
Юра Шатунов / Падают листья
Дисковод: ASUS    DRW-1814BL   Adapter: 1  ID: 0
Режим чтения                 : Достоверность
Использование точного потока : Да
Отключение кэша аудио        : Да
Использование указателей C2  : Нет
Коррекция смещения при чтении                     : 6
Способность читать области Lead-in и Lead-out     : Нет
Заполнение пропущенных сэмплов тишиной            : Да
Удаление блоков с тишиной в начале и конце        : Нет
При вычислениях CRC использовались нулевые сэмплы : Да
Интерфейс                                         : Установленный внешний ASPI-интерфейс
Выходной формат : Внутренние WAV-операции
Формат сэмплов  : 44.100 Гц; 16 бит; стерео
TOC извлечённого CD
     Трек |   Старт  | Длительность | Начальный сектор | Конечный сектор
    ---------------------------------------------------------------------
       1  |  0:00.00 |    4:01.63   |           0      |      18137
       2  |  4:01.63 |    3:31.11   |       18138      |      33973
       3  |  7:32.74 |    5:35.24   |       33974      |      59122
       4  | 13:08.23 |    3:24.46   |       59123      |      74468
       5  | 16:32.69 |    3:35.61   |       74469      |      90654
       6  | 20:08.55 |    3:13.44   |       90655      |     105173
       7  | 23:22.24 |    3:21.49   |      105174      |     120297
       8  | 26:43.73 |    4:13.50   |      120298      |     139322
       9  | 30:57.48 |    4:13.50   |      139323      |     158347
      10  | 35:11.23 |    5:10.61   |      158348      |     181658
      11  | 40:22.09 |    4:05.09   |      181659      |     200042
      12  | 44:27.18 |    3:48.71   |      200043      |     217213
      13  | 48:16.14 |    5:04.68   |      217214      |     240081
      14  | 55:53.07 |   18:16.52   |      251482      |     333733
Характеристики диапазона извлечения и сообщения об ошибках
Выбранный диапазон
     Имя файла E:\НА-А-А-АШЕ!!!!!!!\Юра Шатунов\Юра Шатунов - Падают листья\Юра Шатунов - Падают листья.wav
     Пиковый уровень 99.2 %
     Качество диапазона 99.9 %
     CRC теста 59A11436
     CRC копии 59A11436
     Копирование... OK
Ошибок не произошло
AccurateRip: сводка
Трек  1  нет в базе данных
Трек  2  нет в базе данных
Трек  3  нет в базе данных
Трек  4  нет в базе данных
Трек  5  нет в базе данных
Трек  6  нет в базе данных
Трек  7  нет в базе данных
Трек  8  нет в базе данных
Трек  9  нет в базе данных
Трек 10  нет в базе данных
Трек 11  нет в базе данных
Трек 12  нет в базе данных
Трек 13  нет в базе данных
Ни одного трека нет в базе AccurateRip
Конец отчёта

Отчёт auCDtect Task manager&#58;

-----------------------
DON'T MODIFY THIS FILE
-----------------------
PERFORMER: auCDtect Task Manager, ver. 1.6.0 RC1 build 1.6.0.1
Copyright (c) 2008-2010 y-soft. All rights reserved
http://y-soft.org
ANALYZER: auCDtect: CD records authenticity detector, version 0.8.2
Copyright (c) 2004 Oleg Berngardt. All rights reserved.
Copyright (c) 2004 Alexander Djourik. All rights reserved.
FILE: Юра Шатунов - Падают листья.flac
  Size: 398167288 Hash: 82C7FFBC80DDEA010039FCE335344991 Accuracy: -m0
  Conclusion: CDDA 100%
  Signature: A7BACAD1DBEE6406197D79134C7BED1B0C91F9EF
-

Создавать темы 21-Дек-2014 22:29 (спустя 29 минут)

2004 - Если хочешь...не бойся

Трек лист:
01. Не бойся (03:37)
02. Если хочешь... (04:32)
03. Мне трудно говорить (03:11)
04. Цветы (05:02)
05. Ну что же ты» (05:01)
06. Дождь-дождь (04:21)
07. Белые розы» (05:32)
08. Я откровенен (03:44)
09. Лето (03:36)
10. Дни уходят (03:06)
11. Пусть будет ночь (05:24)
12. Мой дождик (03:31)
Продолжительность: 00:50:41

Отчёт ЕАС&#58;

Exact Audio Copy V0.99 prebeta 4 from 23. January 2008
Отчёт EAC об извлечении, выполненном 2. декабря 2008, 3:12
Юра Шатунов / Если хочешь...не бойся
Дисковод: ASUS    DRW-1814BL   Adapter: 3  ID: 0
Режим чтения                 : Достоверность
Использование точного потока : Да
Отключение кэша аудио        : Да
Использование указателей C2  : Нет
Коррекция смещения при чтении                     : 6
Способность читать области Lead-in и Lead-out     : Нет
Заполнение пропущенных сэмплов тишиной            : Да
Удаление блоков с тишиной в начале и конце        : Нет
При вычислениях CRC использовались нулевые сэмплы : Да
Интерфейс                                         : Установленный внешний ASPI-интерфейс
Выходной формат : Внутренние WAV-операции
Формат сэмплов  : 44.100 Гц; 16 бит; стерео
TOC извлечённого CD
     Трек |   Старт  | Длительность | Начальный сектор | Конечный сектор
    ---------------------------------------------------------------------
       1  |  0:00.00 |    3:37.48   |           0      |      16322
       2  |  3:37.48 |    4:32.71   |       16323      |      36793
       3  |  8:10.44 |    3:11.07   |       36794      |      51125
       4  | 11:21.51 |    5:02.38   |       51126      |      73813
       5  | 16:24.14 |    5:01.00   |       73814      |      96388
       6  | 21:25.14 |    4:21.58   |       96389      |     116021
       7  | 25:46.72 |    5:32.05   |      116022      |     140926
       8  | 31:19.02 |    3:44.05   |      140927      |     157731
       9  | 35:03.07 |    3:36.03   |      157732      |     173934
      10  | 38:39.10 |    3:06.69   |      173935      |     187953
      11  | 41:46.04 |    5:24.08   |      187954      |     212261
      12  | 47:10.12 |    3:31.25   |      212262      |     228111
Характеристики диапазона извлечения и сообщения об ошибках
Выбранный диапазон
     Имя файла D:\Юра Шатунов\2004.Если хочешь...не бойся\Юра Шатунов - Если хочешь...не бойся.wav
     Пиковый уровень 98.8 %
     Качество диапазона 100.0 %
     CRC теста F1BD53E2
     CRC копии F1BD53E2
     Копирование... OK
Ошибок не произошло
Конец отчёта

Отчёт auCDtect Task manager&#58;

-----------------------
DON'T MODIFY THIS FILE
-----------------------
PERFORMER: auCDtect Task Manager, ver. 1.6.0 RC1 build 1.6.0.1
Copyright (c) 2008-2010 y-soft. All rights reserved
http://y-soft.org
ANALYZER: auCDtect: CD records authenticity detector, version 0.8.2
Copyright (c) 2004 Oleg Berngardt. All rights reserved.
Copyright (c) 2004 Alexander Djourik. All rights reserved.
FILE: Юра Шатунов - Если хочешь...не бойся.flac
  Size: 379546561 Hash: E3260BE49FF049242678728CA5B7FE97 Accuracy: -m0
  Conclusion: CDDA 100%
  Signature: F7A23BBE02FEA3959479C347512D9A1156D60C47

2006 - Запиши мой голос

Трек лист:
01. Запиши мой голос на кассету (03:24)
02. После выпускного (03:31)
03. Летние ночи (03:49)
04. Землю обойду (02:39)
05. Сколько можно (03:38)
06. Ты прости меня, прости (03:25)
07. Две минуты (03:30)
08. А помнишь... (посвящается 70-м годам) (03:49)
09. Рассвет для двоих (03:20)
10. Мой зайчик (04:03)
11. Розовый вечер 04:06
12. Тающий снег (05:55)
13. Детство (03:45)
14. Белые розы (05:40)
15. Забудь (03:19)
16. Медленно уходит осень (05:04)
Продолжительность: 01:03:05

Отчёт ЕАС&#58;

Exact Audio Copy V0.99 prebeta 4 from 23. January 2008
Отчёт EAC об извлечении, выполненном 30. октября 2008, 16:52
Юрий Шатунов / Запиши мой голос
Дисковод: ASUS    DRW-1814BL   Adapter: 3  ID: 0
Режим чтения                 : Достоверность
Использование точного потока : Да
Отключение кэша аудио        : Да
Использование указателей C2  : Нет
Коррекция смещения при чтении                     : 6
Способность читать области Lead-in и Lead-out     : Нет
Заполнение пропущенных сэмплов тишиной            : Да
Удаление блоков с тишиной в начале и конце        : Нет
При вычислениях CRC использовались нулевые сэмплы : Нет
Интерфейс                                         : Встроенный Win32-интерфейс для Win NT/2000
Выходной формат : Внутренние WAV-операции
Формат сэмплов  : 44.100 Гц; 16 бит; стерео
TOC извлечённого CD
     Трек |   Старт  | Длительность | Начальный сектор | Конечный сектор
    ---------------------------------------------------------------------
       1  |  0:00.00 |    3:24.71   |           0      |      15370
       2  |  3:24.71 |    3:31.71   |       15371      |      31266
       3  |  6:56.67 |    3:49.69   |       31267      |      48510
       4  | 10:46.61 |    2:39.38   |       48511      |      60473
       5  | 13:26.24 |    3:38.13   |       60474      |      76836
       6  | 17:04.37 |    3:25.05   |       76837      |      92216
       7  | 20:29.42 |    3:30.61   |       92217      |     108027
       8  | 24:00.28 |    3:49.59   |      108028      |     125261
       9  | 27:50.12 |    3:20.14   |      125262      |     140275
      10  | 31:10.26 |    4:03.63   |      140276      |     158563
      11  | 35:14.14 |    4:06.57   |      158564      |     177070
      12  | 39:20.71 |    5:55.19   |      177071      |     203714
      13  | 45:16.15 |    3:45.14   |      203715      |     220603
      14  | 49:01.29 |    5:40.41   |      220604      |     246144
      15  | 54:41.70 |    3:19.28   |      246145      |     261097
      16  | 58:01.23 |    5:04.35   |      261098      |     283932
Характеристики диапазона извлечения и сообщения об ошибках
Выбранный диапазон
     Имя файла Имя файла E:\Юра Шатунов\Юра Шатунов - Запиши мой голос\Юрий Шатунов - Запиши мой голос.wav
     Пиковый уровень 98.8 %
     Качество диапазона 99.9 %
     CRC теста D2A3C5E7
     CRC копии D2A3C5E7
     Копирование... OK
Ошибок не произошло
AccurateRip: сводка
Трек  1  нет в базе данных
Трек  2  нет в базе данных
Трек  3  нет в базе данных
Трек  4  нет в базе данных
Трек  5  нет в базе данных
Трек  6  нет в базе данных
Трек  7  нет в базе данных
Трек  8  нет в базе данных
Трек  9  нет в базе данных
Трек 10  нет в базе данных
Трек 11  нет в базе данных
Трек 12  нет в базе данных
Трек 13  нет в базе данных
Трек 14  нет в базе данных
Трек 15  нет в базе данных
Трек 16  нет в базе данных
Ни одного трека нет в базе AccurateRip
Конец отчёта

Отчёт auCDtect Task manager&#58;

-----------------------
DON'T MODIFY THIS FILE
-----------------------
PERFORMER: auCDtect Task Manager, ver. 1.6.0 RC1 build 1.6.0.1
Copyright (c) 2008-2010 y-soft. All rights reserved
http://y-soft.org
ANALYZER: auCDtect: CD records authenticity detector, version 0.8.2
Copyright (c) 2004 Oleg Berngardt. All rights reserved.
Copyright (c) 2004 Alexander Djourik. All rights reserved.
FILE: Юрий Шатунов - Запиши мой голос.flac
  Size: 470274705 Hash: 70C78C2EF40E83466614332C60204CCB Accuracy: -m0
  Conclusion: MPEG 95%
  Signature: C3495813463D7861C731A2BA36B4F3BA8198ECFE

2012 - Я верю

Трек лист:
01. А лето цвета (04:43)
02. Без тебя (03:53)
03. От белых роз (04:11)
04. Это лето (03:50)
05. Не хочу (03:56)
06. Улыбка (03:12)
07. Глупые снежинки (06:15)
08. Майский вечер (03:12)
09. Я верю (03:09)
10. Тет-а-тет (03:45)
11. Ромашки (03:41)
12. Летний ливень (02:59)
13. Отпусти меня (03:49)
14. Разве можно (03:49)
15. Минорные аккорды (04:45)
16. Огромное небо (03:16)
17. Мой малыш (04:33)
18. Поиграем в прятки (04:09)
19. Я набираю номер твой (04:10)
20. Привет (03:27)
Продолжительность: 01:08:44

Отчёт ЕАС&#58;

Exact Audio Copy V1.0 beta 3 from 29. August 2011
EAC extraction logfile from 22. July 2012, 16:06
Юрий Шатунов / Я верю...
Used drive  : PLEXTOR DVDR   PX-760A   Adapter: 4  ID: 2
Read mode               : Secure
Utilize accurate stream : Yes
Defeat audio cache      : Yes
Make use of C2 pointers : No
Read offset correction                      : 30
Overread into Lead-In and Lead-Out          : Yes
Fill up missing offset samples with silence : Yes
Delete leading and trailing silent blocks   : No
Null samples used in CRC calculations       : Yes
Used interface                              : Installed external ASPI interface
Used output format : Internal WAV Routines
Sample format      : 44.100 Hz; 16 Bit; Stereo
TOC of the extracted CD
     Track |   Start  |  Length  | Start sector | End sector
    ---------------------------------------------------------
        1  |  0:00.00 |  4:43.00 |         0    |    21224
        2  |  4:43.00 |  3:53.00 |     21225    |    38699
        3  |  8:36.00 |  4:11.00 |     38700    |    57524
        4  | 12:47.00 |  3:50.00 |     57525    |    74774
        5  | 16:37.00 |  3:56.00 |     74775    |    92474
        6  | 20:33.00 |  3:12.00 |     92475    |   106874
        7  | 23:45.00 |  6:15.00 |    106875    |   134999
        8  | 30:00.00 |  3:12.00 |    135000    |   149399
        9  | 33:12.00 |  3:09.00 |    149400    |   163574
       10  | 36:21.00 |  3:45.00 |    163575    |   180449
       11  | 40:06.00 |  3:41.00 |    180450    |   197024
       12  | 43:47.00 |  2:59.00 |    197025    |   210449
       13  | 46:46.00 |  3:49.00 |    210450    |   227624
       14  | 50:35.00 |  3:49.00 |    227625    |   244799
       15  | 54:24.00 |  4:45.00 |    244800    |   266174
       16  | 59:09.00 |  3:16.00 |    266175    |   280874
       17  | 62:25.00 |  4:33.00 |    280875    |   301349
       18  | 66:58.00 |  4:09.00 |    301350    |   320024
       19  | 71:07.00 |  4:10.00 |    320025    |   338774
       20  | 75:17.00 |  3:27.00 |    338775    |   354299
Range status and errors
Selected range
     Filename M:\FLAC (bruk67)\MP3\Юрий Шатунов - Я верю... (2012) FLAC\Юрий Шатунов - Я верю....wav
     Peak level 95.5 %
     Extraction speed 2.1 X
     Range quality 99.9 %
     Test CRC 0EF5F46C
     Copy CRC 0EF5F46C
     Copy OK
No errors occurred
AccurateRip summary
Track  1  not present in database
Track  2  not present in database
Track  3  not present in database
Track  4  not present in database
Track  5  not present in database
Track  6  not present in database
Track  7  not present in database
Track  8  not present in database
Track  9  not present in database
Track 10  not present in database
Track 11  not present in database
Track 12  not present in database
Track 13  not present in database
Track 14  not present in database
Track 15  not present in database
Track 16  not present in database
Track 17  not present in database
Track 18  not present in database
Track 19  not present in database
Track 20  not present in database
None of the tracks are present in the AccurateRip database
End of status report
---- CUETools DB Plugin V2.1.3
[CTDB TOCID: LG.U9xofwdpOY8b_11dxYpUytTg-] disk not present in database, Submit result: LG.U9xofwdpOY8b_11dxYpUytTg- has been uploaded
==== Log checksum AAF103CD721227667344411BBE6994B4662FF4EB854C12250F7024C0F04FA40D ====

Отчёт auCDtect Task manager&#58;

-----------------------
DON'T MODIFY THIS FILE
-----------------------
PERFORMER: auCDtect Task Manager, ver. 1.6.0 RC1 build 1.6.0.1
Copyright (c) 2008-2010 y-soft. All rights reserved
http://y-soft.org
ANALYZER: auCDtect: CD records authenticity detector, version 0.8.2
Copyright (c) 2004 Oleg Berngardt. All rights reserved.
Copyright (c) 2004 Alexander Djourik. All rights reserved.
FILE: Юрий Шатунов - Я верю....flac
  Size: 606551993 Hash: E125894522D5E847EE0DB4352077A870 Accuracy: -m0
  Conclusion: CDDA 100%
  Signature: C20ED2E82E1E1F6AC92AC0D01483EBDA08FFEB01
-
Яндекс.Метрика
Рейтинг@Mail.ru