Ёлка - The Best Hits (2005) [FLAC|Lossless]<Pop>

 

Создавать темы 21-Дек-2014 21:59

-Ёлка - The Best Hits (2005)- Год: 2005
Жанр: Pop
Продолжительность: 01:05:14
Кодек: FLAC
Битрейт: Lossless
Трек лист:
01 Ofisni Rabotnik (3:38)
02 Gorod Obmana (3:53)
03 Teni (4:01)
04 Etot Velikolepni Mir (3:41)
05 Devochka - Studentka (3:38)
06 Malchik Krasavchik (4:05)
07 Tri Puti (3:46)
08 Tochki goroda (4:22)
09 Leti Love (3:41)
10 Navodnenie (3:48)
11 Gorod Moi ! (3:48)
12 Devochka v Pegio (4:06)
13 Dobroe Utro (3:48)
14 Horoshee nastroenie (4:11)
15 Gori (3:47)
16 Dve Rozi (3:17)
17 Ne Paday Dyhom (3:30)
18 Svoboda (3:39)

Отчёт ЕАС&#58;

Exact Audio Copy V0.99 prebeta 5 from 4. May 2009
Отчёт EAC об извлечении, выполненном 29. июня 2010, 21:17
Ёлка / Офисный работник
Дисковод: _NEC DVD_RW ND-4550A Adapter: 0 ID: 0
Режим чтения : Достоверность
Использование точного потока : Да
Отключение кэша аудио : Нет
Использование указателей C2 : Да
Коррекция смещения при чтении : 48
Способность читать области Lead-in и Lead-out : Нет
Заполнение пропущенных сэмплов тишиной : Да
Удаление блоков с тишиной в начале и конце : Нет
При вычислениях CRC использовались нулевые сэмплы : Да
Интерфейс : Встроенный Win32-интерфейс для Win NT/2000
Выходной формат : Пользовательский кодировщик
Выбранный битрейт : 1024 kBit/s
Качество : Высокий
Добавление ID3-тэга : Нет
Утилита сжатия : D:\Program Files\Exact Audio Copy\FLAC\FLAC.EXE
Дополнительные параметры : -6 -V -T "ARTIST=%a" -T "TITLE=%t" -T "ALBUM=%g" -T "DATE=%y" -T "TRACKNUMBER=%n" -T "GENRE=%m" -T "COMMENT=%e" %s -o %d
TOC извлечённого CD
Трек | Старт | Длительность | Начальный сектор | Конечный сектор
---------------------------------------------------------------------
1 | 0:00.00 | 3:38.42 | 0 | 16391
2 | 3:38.42 | 3:53.27 | 16392 | 33893
3 | 7:31.69 | 4:01.69 | 33894 | 52037
4 | 11:33.63 | 3:41.62 | 52038 | 68674
5 | 15:15.50 | 3:38.66 | 68675 | 85090
6 | 18:54.41 | 4:05.11 | 85091 | 103476
7 | 22:59.52 | 3:46.28 | 103477 | 120454
8 | 26:46.05 | 4:22.48 | 120455 | 140152
9 | 31:08.53 | 3:41.24 | 140153 | 156751
10 | 34:50.02 | 3:48.70 | 156752 | 173921
11 | 38:38.72 | 3:48.54 | 173922 | 191075
12 | 42:27.51 | 4:06.24 | 191076 | 209549
13 | 46:34.00 | 3:48.17 | 209550 | 226666
14 | 50:22.17 | 4:11.63 | 226667 | 245554
15 | 54:34.05 | 3:47.60 | 245555 | 262639
16 | 58:21.65 | 3:17.51 | 262640 | 277465
17 | 61:39.41 | 3:30.48 | 277466 | 293263
18 | 65:10.14 | 3:39.61 | 293264 | 309749
Характеристики диапазона извлечения и сообщения об ошибках
Выбранный диапазон
Имя файла Z:\_music\lossless\_lossless_temp\Ёлка\Ёлка - Офисный работник.wav
Пиковый уровень 99.8 %
Качество диапазона 100.0 %
CRC теста 512AF80F
CRC копии 512AF80F
Копирование... OK
Ошибок не произошло
Конец отчёта

Отчёт Audiochecker&#58;

AUDIOCHECKER v2.0 beta (build 457) - by Dester - [url=mailto:[email protected]][email protected][/url]
~~~~~~~~~~~~~~~~~~~~~~~~~~~~~~~~~~
-=== НЕ РЕДАКТИРУЙТЕ ЭТОТ ФАЙЛ! ===-
Путь: ...\Ёлка
1 -=- Ёлка - Офисный работник.flac -=- CDDA (100%)
197877492
-
Яндекс.Метрика
Рейтинг@Mail.ru