Валерий Меладзе - Лучшее (2009) 2CD [FLAC|Lossless]<Pop>

 

Создавать темы 21-Дек-2014 21:59

-Валерий Меладзе - Лучшее (2009)- Год: 2009
Жанр: Pop
Продолжительность: 02:38:53
Кодек: FLAC
Битрейт: Lossless
Тип рипа: (image+.cue) + log-

Треклист&#58;

CD1

Трек лист:
01. Вопреки (4:26)
02. Параллельные (3:48)
03. Салют Вера (3:44)
04. Сахара не надо (3:36)
05. Притяженья больше нет (4:32)
06. Се ля ви (3:55)
07. Текила-любовь (3:42)
08. Красиво (4:44)
09. Безответно (4:01)
10. Океан и три реки (3:39)
11. Актриса (4:10)
12. Посредине лета (3:32)
13. Сэра (3:53)
14. Девушки из высшего общества (3:25)
15. Не тревожь мне душу, скрипка (4:16)
16. Самба белого мотылька (4:01)
17. Как ты красива сегодня (4:01)
18. Лимбо (4:03)
19. Разведи огонь (4:02)
20. Так и скажи (3:48)
Продолжительность – 01:19:18

Отчёт ЕАС&#58;

Exact Audio Copy V1.0 beta 3 from 29. August 2011
Отчёт EAC об извлечении, выполненном 10. февраля 2012, 23:07
Валерий Меладзе / Лучшее CD1
Дисковод: Optiarc DVD RW AD-5280S   Adapter: 2  ID: 1
Режим чтения                 : Достоверность
Использование точного потока : Да
Отключение кэша аудио        : Да
Использование указателей C2  : Нет
Коррекция смещения при чтении                     : 48
Способность читать области Lead-in и Lead-out     : Нет
Заполнение пропущенных сэмплов тишиной            : Да
Удаление блоков с тишиной в начале и конце        : Нет
При вычислениях CRC использовались нулевые сэмплы : Да
Интерфейс                                         : Установленный внешний ASPI-интерфейс
Выходной формат : Внутренние WAV-операции
Формат сэмплов  : 44.100 Гц; 16 бит; стерео
TOC извлечённого CD
     Трек |   Старт  | Длительность | Начальный сектор | Конечный сектор
    ---------------------------------------------------------------------
       1  |  0:00.00 |    4:25.42   |           0      |      19916
       2  |  4:25.42 |    3:47.44   |       19917      |      36985
       3  |  8:13.11 |    3:43.61   |       36986      |      53771
       4  | 11:56.72 |    3:35.63   |       53772      |      69959
       5  | 15:32.60 |    4:32.37   |       69960      |      90396
       6  | 20:05.22 |    3:55.00   |       90397      |     108021
       7  | 24:00.22 |    3:42.05   |      108022      |     124676
       8  | 27:42.27 |    4:44.25   |      124677      |     146001
       9  | 32:26.52 |    4:01.18   |      146002      |     164094
      10  | 36:27.70 |    3:39.00   |      164095      |     180519
      11  | 40:06.70 |    4:09.65   |      180520      |     199259
      12  | 44:16.60 |    3:31.52   |      199260      |     215136
      13  | 47:48.37 |    3:52.60   |      215137      |     232596
      14  | 51:41.22 |    3:24.54   |      232597      |     247950
      15  | 55:06.01 |    4:16.23   |      247951      |     267173
      16  | 59:22.24 |    4:00.65   |      267174      |     285238
      17  | 63:23.14 |    4:01.19   |      285239      |     303332
      18  | 67:24.33 |    4:03.32   |      303333      |     321589
      19  | 71:27.65 |    4:02.00   |      321590      |     339739
      20  | 75:29.65 |    3:48.35   |      339740      |     356874
Характеристики диапазона извлечения и сообщения об ошибках
Выбранный диапазон
     Имя файла C:\rip-flacmusic.ru\Валерий Меладзе - Лучшее CD1.wav
     Пиковый уровень 100.0 %
     Скорость извлечения 4.7 X
     Качество диапазона 100.0 %
     CRC теста 7C24FB07
     CRC копии 7C24FB07
     Копирование... OK
Ошибок не произошло
AccurateRip: сводка
Трек  1  отсутствует в базе данных
Трек  2  отсутствует в базе данных
Трек  3  отсутствует в базе данных
Трек  4  отсутствует в базе данных
Трек  5  отсутствует в базе данных
Трек  6  отсутствует в базе данных
Трек  7  отсутствует в базе данных
Трек  8  отсутствует в базе данных
Трек  9  отсутствует в базе данных
Трек 10  отсутствует в базе данных
Трек 11  отсутствует в базе данных
Трек 12  отсутствует в базе данных
Трек 13  отсутствует в базе данных
Трек 14  отсутствует в базе данных
Трек 15  отсутствует в базе данных
Трек 16  отсутствует в базе данных
Трек 17  отсутствует в базе данных
Трек 18  отсутствует в базе данных
Трек 19  отсутствует в базе данных
Трек 20  отсутствует в базе данных
Ни одного трека нет в базе AccurateRip
Конец отчёта
==== Контрольная сумма отчёта 0BD95B92519A46E04038AE8D4F28FC187B9F3D2E1B29509F34A1227D0CD974FD ====

Отчёт auCDtect&#58;

-----------------------
DON'T MODIFY THIS FILE
-----------------------
PERFORMER: auCDtect Task Manager, ver. 1.5.1RC4 build 1.5.1.5
Copyright (c) 2008-2010 y-soft. All rights reserved
http://y-soft.org
ANALYZER: auCDtect: CD records authenticity detector, version 0.8.2
Copyright (c) 2004 Oleg Berngardt. All rights reserved.
Copyright (c) 2004 Alexander Djourik. All rights reserved.
FILE: Валерий Меладзе - Лучшее CD1.flac
  Size: 592646958 Hash: 34604A10A7031BF75D9802E421B0FF04 Accuracy: -m8
  Conclusion: CDDA 100%
  Signature: 4BBAC461E5CDA6F943FA413868394C4CD46D7E8D

CD2

Трек лист:
01. Без суеты (4:06)
02. Спрячем слезы от постороних (3:48)
03. Иностранец (4:06)
04. Верни мою любовь (4:25)
05. Рассветная (3:40)
06. Шоу-бизнес (3:31)
07. Осколки лета (3:41)
08. Ей никогда не быть моей (4:15)
09. Ночь накануне Рождества (4:59)
10. Переменится ветер (3:44)
11. Давай устроим шоу (5:01)
12. Говорила ты... (3:16)
13. Золотистый локон (3:33)
14. Вера (4:06)
15. Не уходи (4:06)
16. Чуть ниже небес (4:23)
17. Королева автострады (4:24)
18. Мечта (3:01)
19. Чего не могут люди (3:38)
20. Береги себя, мой ангел (3:52)
Продолжительность – 01:19:35

Отчёт ЕАС&#58;

Exact Audio Copy V1.0 beta 3 from 29. August 2011
Отчёт EAC об извлечении, выполненном 11. февраля 2012, 0:47
Валерий Меладзе / Лучшее CD2
Дисковод: Optiarc DVD RW AD-5280S   Adapter: 2  ID: 1
Режим чтения                 : Достоверность
Использование точного потока : Да
Отключение кэша аудио        : Да
Использование указателей C2  : Нет
Коррекция смещения при чтении                     : 48
Способность читать области Lead-in и Lead-out     : Нет
Заполнение пропущенных сэмплов тишиной            : Да
Удаление блоков с тишиной в начале и конце        : Нет
При вычислениях CRC использовались нулевые сэмплы : Да
Интерфейс                                         : Установленный внешний ASPI-интерфейс
Выходной формат : Внутренние WAV-операции
Формат сэмплов  : 44.100 Гц; 16 бит; стерео
TOC извлечённого CD
     Трек |   Старт  | Длительность | Начальный сектор | Конечный сектор
    ---------------------------------------------------------------------
       1  |  0:00.00 |    4:05.54   |           0      |      18428
       2  |  4:05.54 |    3:47.65   |       18429      |      35518
       3  |  7:53.44 |    4:06.10   |       35519      |      53978
       4  | 11:59.54 |    4:24.61   |       53979      |      73839
       5  | 16:24.40 |    3:40.27   |       73840      |      90366
       6  | 20:04.67 |    3:30.41   |       90367      |     106157
       7  | 23:35.33 |    3:41.00   |      106158      |     122732
       8  | 27:16.33 |    4:15.30   |      122733      |     141887
       9  | 31:31.63 |    4:58.68   |      141888      |     164305
      10  | 36:30.56 |    3:44.00   |      164306      |     181105
      11  | 40:14.56 |    5:00.49   |      181106      |     203654
      12  | 45:15.30 |    3:16.25   |      203655      |     218379
      13  | 48:31.55 |    3:33.14   |      218380      |     234368
      14  | 52:04.69 |    4:05.68   |      234369      |     252811
      15  | 56:10.62 |    4:06.00   |      252812      |     271261
      16  | 60:16.62 |    4:22.52   |      271262      |     290963
      17  | 64:39.39 |    4:23.54   |      290964      |     310742
      18  | 69:03.18 |    3:01.06   |      310743      |     324323
      19  | 72:04.24 |    3:38.00   |      324324      |     340673
      20  | 75:42.24 |    3:52.22   |      340674      |     358095
Характеристики диапазона извлечения и сообщения об ошибках
Выбранный диапазон
     Имя файла C:\rip-flacmusic.ru\Валерий Меладзе - Лучшее CD2.wav
     Пиковый уровень 100.0 %
     Скорость извлечения 4.7 X
     Качество диапазона 100.0 %
     CRC теста F162EA85
     CRC копии F162EA85
     Копирование... OK
Ошибок не произошло
AccurateRip: сводка
Трек  1  отсутствует в базе данных
Трек  2  отсутствует в базе данных
Трек  3  отсутствует в базе данных
Трек  4  отсутствует в базе данных
Трек  5  отсутствует в базе данных
Трек  6  отсутствует в базе данных
Трек  7  отсутствует в базе данных
Трек  8  отсутствует в базе данных
Трек  9  отсутствует в базе данных
Трек 10  отсутствует в базе данных
Трек 11  отсутствует в базе данных
Трек 12  отсутствует в базе данных
Трек 13  отсутствует в базе данных
Трек 14  отсутствует в базе данных
Трек 15  отсутствует в базе данных
Трек 16  отсутствует в базе данных
Трек 17  отсутствует в базе данных
Трек 18  отсутствует в базе данных
Трек 19  отсутствует в базе данных
Трек 20  отсутствует в базе данных
Ни одного трека нет в базе AccurateRip
Конец отчёта
==== Контрольная сумма отчёта 3911178154BC4C0DC8A02D49709DADB7275DFE3E706CA18F783E890E9A50957B ====

Отчёт auCDtect&#58;

-----------------------
DON'T MODIFY THIS FILE
-----------------------
PERFORMER: auCDtect Task Manager, ver. 1.5.1RC4 build 1.5.1.5
Copyright (c) 2008-2010 y-soft. All rights reserved
http://y-soft.org
ANALYZER: auCDtect: CD records authenticity detector, version 0.8.2
Copyright (c) 2004 Oleg Berngardt. All rights reserved.
Copyright (c) 2004 Alexander Djourik. All rights reserved.
FILE: Валерий Меладзе - Лучшее CD2.flac
  Size: 589066259 Hash: 20AB458E6034F7F31011141BDDC0B075 Accuracy: -m8
  Conclusion: CDDA 100%
  Signature: A40C0467EF818BD6F7DF34C7E5215E03D1E30FE2
-
Яндекс.Метрика
Рейтинг@Mail.ru