Monokini - Дотянуться до Солнца (2002) [FLAC|Lossless]<Pop>

 

Создавать темы 21-Дек-2014 21:59

-Monokini - Дотянуться до Солнца (2002)- Год: 2002
Издатель (лейбл): RG MUSIC BCI
Номер по каталогу: RGCD-262
Жанр: Pop
Продолжительность: 00:37:40-Кодек: FLAC (*.flac)
Битрейт: Lossless
Тип рипа: (img+.cue)
Наличие сканов в раздаче: комплект
Источник (релизер): WEB-Трек лист:
01. Унеси меня
02. Поезд на Питер
03. Может
04. На рассвете танцуй
05. До встречи на звезде
06. Между нами
07. Две капли
08. Дотянуться до солнца
09. Сидим на облаках
10. До свидания

Отчёт ЕАС&#58;

Exact Audio Copy V0.99 prebeta 5 from 4. May 2009
Отчёт EAC об извлечении, выполненном 24. ноября 2009, 22:23
Monokini / Дотянуться до солнца
Дисковод: ASUS    DRW-1814BL   Adapter: 1  ID: 0
Режим чтения                 : Достоверность
Использование точного потока : Да
Отключение кэша аудио        : Да
Использование указателей C2  : Нет
Коррекция смещения при чтении                     : 6
Способность читать области Lead-in и Lead-out     : Нет
Заполнение пропущенных сэмплов тишиной            : Да
Удаление блоков с тишиной в начале и конце        : Нет
При вычислениях CRC использовались нулевые сэмплы : Да
Интерфейс                                         : Установленный внешний ASPI-интерфейс
Выходной формат : Внутренние WAV-операции
Формат сэмплов  : 44.100 Гц; 16 бит; стерео
TOC извлечённого CD
     Трек |   Старт  | Длительность | Начальный сектор | Конечный сектор
    ---------------------------------------------------------------------
       1  |  0:00.00 |    3:38.70   |           0      |      16419
       2  |  3:38.70 |    3:14.30   |       16420      |      30999
       3  |  6:53.25 |    3:53.56   |       31000      |      48530
       4  | 10:47.06 |    3:24.64   |       48531      |      63894
       5  | 14:11.70 |    4:05.09   |       63895      |      82278
       6  | 18:17.04 |    3:25.56   |       82279      |      97709
       7  | 21:42.60 |    3:42.07   |       97710      |     114366
       8  | 25:24.67 |    4:04.33   |      114367      |     132699
       9  | 29:29.25 |    3:48.52   |      132700      |     149851
      10  | 33:18.02 |    4:00.47   |      149852      |     167898
Характеристики диапазона извлечения и сообщения об ошибках
Выбранный диапазон
     Имя файла D:\ЯФЛДУК\Monokini - Дотянуться до солнца\Monokini - Дотянуться до солнца.wav
     Пиковый уровень 99.9 %
     Качество диапазона 100.0 %
     CRC теста FBD770A2
     CRC копии FBD770A2
     Копирование... OK
Ошибок не произошло
AccurateRip: сводка
Трек  1  нет в базе данных
Трек  2  нет в базе данных
Трек  3  нет в базе данных
Трек  4  нет в базе данных
Трек  5  нет в базе данных
Трек  6  нет в базе данных
Трек  7  нет в базе данных
Трек  8  нет в базе данных
Трек  9  нет в базе данных
Трек 10  нет в базе данных
Ни одного трека нет в базе AccurateRip
Конец отчёта

Отчёт auCDtect Task manager&#58;

-----------------------
DON'T MODIFY THIS FILE
-----------------------
PERFORMER: auCDtect Task Manager, ver. 1.6.0 RC1 build 1.6.0.1
Copyright (c) 2008-2010 y-soft. All rights reserved
http://y-soft.org
ANALYZER: auCDtect: CD records authenticity detector, version 0.8.2
Copyright (c) 2004 Oleg Berngardt. All rights reserved.
Copyright (c) 2004 Alexander Djourik. All rights reserved.
FILE: Monokini - Дотянуться до Солнца.flac
  Size: 259330330 Hash: 574E362697E39B92FB5166C4BCAF0042 Accuracy: -m0
  Conclusion: CDDA 100%
  Signature: 3D2F72C01B38D137A841AE709E47FE28A11A7C87
-
Яндекс.Метрика
Рейтинг@Mail.ru