КиївЕлектро (Киевэлектро) - Камон эврибади (2013) [FLAC|Lossless]<Pop>

 

Создавать темы 21-Дек-2014 21:59

-КиївЕлектро (Киевэлектро) - Камон эврибади (2013)- Год: 2013
Жанр: Pop
Продолжительность: 00:46:55
Лейбл: MOON Records Украина
Каталог №: MR 5562-2
Тип рипа: image+.cue
Кодек: FLAC (*.flac)
Битрейт: Lossless-Трек лист:-01. Вечер пить, гулять
02. Лето-Море
03. Танцы минус
04. Бьется сердце
05. Камон Эврибади
06. Пароход бумажный
07. Поцелуй
08. Шарики
09. Гуляй, славяне! (feat. Алена Винницкая)
10. Ты и Я
11. Я - Украинец!
Bonus
12. В Гидропарке-

Отчёт ЕАС&#58;

Exact Audio Copy V1.0 beta 3 from 29. August 2011
EAC extraction logfile from 22. May 2013, 20:58
КиївЕлектро / Камон эврибади
Used drive  : Optiarc DVD RW AD-7283S   Adapter: 3  ID: 1
Read mode               : Secure
Utilize accurate stream : Yes
Defeat audio cache      : Yes
Make use of C2 pointers : No
Read offset correction                      : 48
Overread into Lead-In and Lead-Out          : No
Fill up missing offset samples with silence : Yes
Delete leading and trailing silent blocks   : No
Null samples used in CRC calculations       : Yes
Used interface                              : Native Win32 interface for Win NT & 2000
Used output format : Internal WAV Routines
Sample format      : 44.100 Hz; 16 Bit; Stereo
TOC of the extracted CD
     Track |   Start  |  Length  | Start sector | End sector
    ---------------------------------------------------------
        1  |  0:00.00 |  4:31.20 |         0    |    20344
        2  |  4:31.20 |  4:01.65 |     20345    |    38484
        3  |  8:33.10 |  4:05.54 |     38485    |    56913
        4  | 12:38.64 |  3:54.51 |     56914    |    74514
        5  | 16:33.40 |  2:46.32 |     74515    |    86996
        6  | 19:19.72 |  3:55.39 |     86997    |   104660
        7  | 23:15.36 |  3:25.14 |    104661    |   120049
        8  | 26:40.50 |  4:18.25 |    120050    |   139424
        9  | 30:59.00 |  3:24.41 |    139425    |   154765
       10  | 34:23.41 |  3:34.11 |    154766    |   170826
       11  | 37:57.52 |  4:20.19 |    170827    |   190345
       12  | 42:17.71 |  4:37.67 |    190346    |   211187
Range status and errors
Selected range
     Filename T:\Torrents\Lossless\КиївЕлектро - Камон эврибади\КиївЕлектро - Камон эврибади.wav
     Peak level 100.0 %
     Extraction speed 3.9 X
     Range quality 100.0 %
     Test CRC FC98F8CA
     Copy CRC FC98F8CA
     Copy OK
No errors occurred
AccurateRip summary
Track  1  not present in database
Track  2  not present in database
Track  3  not present in database
Track  4  not present in database
Track  5  not present in database
Track  6  not present in database
Track  7  not present in database
Track  8  not present in database
Track  9  not present in database
Track 10  not present in database
Track 11  not present in database
Track 12  not present in database
None of the tracks are present in the AccurateRip database
End of status report
==== Log checksum C01E9474B49082289C7CADB707D04F71A6B0C140098CCC280BAF20399B525AF4 ====

Отчёт auCDtect Task manager&#58;

-----------------------
DON'T MODIFY THIS FILE
-----------------------
PERFORMER: auCDtect Task Manager, ver. 1.6.0 RC1 build 1.6.0.1
Copyright (c) 2008-2010 y-soft. All rights reserved
http://y-soft.org
ANALYZER: auCDtect: CD records authenticity detector, version 0.8.2
Copyright (c) 2004 Oleg Berngardt. All rights reserved.
Copyright (c) 2004 Alexander Djourik. All rights reserved.
FILE: КиївЕлектро - Камон эврибади.flac
  Size: 375981541 Hash: 5DD7C059CD23DEC9CD5605362D848A66 Accuracy: -m0
  Conclusion: CDDA 100%
  Signature: 38994A453C8F9CB599235AC3A7823E7708D53AE0
-
Яндекс.Метрика
Рейтинг@Mail.ru