[ Сегодня на трекере фрилич! Идет свободное скачивание без начисления Download ]

Сергей Чумаков - От весны до весны (1994) [APE|Lossless]<Pop>

 

Создавать темы 21-Дек-2014 21:59

-Сергей Чумаков - От весны до весны (1994)- -Год: 1994
Жанр: Pop
Продолжительность: 00:58:08
Страна: Russia
Лейбл: ℗ 1994 J.S.P.
Лейбл: © 1992 - 1993 студия "Звук"
Каталожный №: 94 005-1
Кодек: APE (image+.cue+.log)
Битрейт: Lossless
Сканы: комплект
Автор рипа: digital2015-Треклист:
01 Ты Нравишься Мне
02 Корабли
03 Сиреневый Вечер
04 День Рождения
05 Жених
06 На Тверской
07 От Весны До Весны
08 Листья Кленовые
09 Сан-Франциско
10 Голуби
11 Гадюка
12 Гордая
13 Романс
14 Звонарь
15 Белая Усадьба
Стихи - Александр Шаганов, музыка – Валерий Башенёв-

Содержание индексной карты (.cue&#41;&#58;

REM GENRE Other
REM DISCID C10DA00F
REM COMMENT "ExactAudioCopy v1.0b3"
PERFORMER ".oiaeia Na.aae"
TITLE "Io aaniu ai aaniu"
FILE "01. Сергей Чумаков - От весны до весны (1994).ape" WAVE
  TRACK 01 AUDIO
    TITLE "Ты нравишься мне"
    PERFORMER "Сергей Чумаков"
    INDEX 00 00:00:00
    INDEX 01 00:00:35
  TRACK 02 AUDIO
    TITLE "Корабли"
    PERFORMER "Сергей Чумаков"
    INDEX 00 03:37:27
    INDEX 01 03:38:60
  TRACK 03 AUDIO
    TITLE "Сиреневый вечер"
    PERFORMER "Сергей Чумаков"
    INDEX 00 07:12:42
    INDEX 01 07:14:00
  TRACK 04 AUDIO
    TITLE "День рождения"
    PERFORMER "Сергей Чумаков"
    INDEX 00 11:54:55
    INDEX 01 11:56:35
  TRACK 05 AUDIO
    TITLE "Жених"
    PERFORMER "Сергей Чумаков"
    INDEX 00 15:12:35
    INDEX 01 15:14:00
  TRACK 06 AUDIO
    TITLE "На Тверской"
    PERFORMER "Сергей Чумаков"
    INDEX 00 18:52:22
    INDEX 01 18:53:60
  TRACK 07 AUDIO
    TITLE "От весны до весны"
    PERFORMER "Сергей Чумаков"
    INDEX 00 23:09:17
    INDEX 01 23:10:50
  TRACK 08 AUDIO
    TITLE "Листья кленовые"
    PERFORMER "Сергей Чумаков"
    INDEX 00 27:02:25
    INDEX 01 27:03:50
  TRACK 09 AUDIO
    TITLE "Сан-Франциско"
    PERFORMER "Сергей Чумаков"
    INDEX 00 30:07:60
    INDEX 01 30:09:05
  TRACK 10 AUDIO
    TITLE "Голуби"
    PERFORMER "Сергей Чумаков"
    INDEX 00 34:26:60
    INDEX 01 34:29:25
  TRACK 11 AUDIO
    TITLE "Гадюка"
    PERFORMER "Сергей Чумаков"
    INDEX 01 38:04:10
  TRACK 12 AUDIO
    TITLE "Гордая"
    PERFORMER "Сергей Чумаков"
    INDEX 00 42:25:40
    INDEX 01 42:28:05
  TRACK 13 AUDIO
    TITLE "Романс"
    PERFORMER "Сергей Чумаков"
    INDEX 01 45:42:50
  TRACK 14 AUDIO
    TITLE "Звонарь"
    PERFORMER "Сергей Чумаков"
    INDEX 00 50:33:42
    INDEX 01 50:36:10
  TRACK 15 AUDIO
    TITLE "Белая усадьба"
    PERFORMER "Сергей Чумаков"
    INDEX 01 54:46:50

Отчёт ЕАС&#58;

Exact Audio Copy V1.0 beta 3 from 29. August 2011
EAC extraction logfile from 1. December 2014, 14:57
×óìàêîâ Ñåðãåé / Îò âåñíû äî âåñíû
Used drive  : TSSTcorpCDDVDW SH-S223C   Adapter: 3  ID: 0
Read mode               : Secure
Utilize accurate stream : Yes
Defeat audio cache      : Yes
Make use of C2 pointers : No
Read offset correction                      : 697
Overread into Lead-In and Lead-Out          : No
Fill up missing offset samples with silence : Yes
Delete leading and trailing silent blocks   : No
Null samples used in CRC calculations       : Yes
Used interface                              : Native Win32 interface for Win NT & 2000
Used output format : Internal WAV Routines
Sample format      : 44.100 Hz; 16 Bit; Stereo
TOC of the extracted CD
     Track |   Start  |  Length  | Start sector | End sector
    ---------------------------------------------------------
        1  |  0:00.35 |  3:38.25 |        35    |    16409
        2  |  3:38.60 |  3:35.15 |     16410    |    32549
        3  |  7:14.00 |  4:42.35 |     32550    |    53734
        4  | 11:56.35 |  3:17.40 |     53735    |    68549
        5  | 15:14.00 |  3:39.60 |     68550    |    85034
        6  | 18:53.60 |  4:16.65 |     85035    |   104299
        7  | 23:10.50 |  3:53.00 |    104300    |   121774
        8  | 27:03.50 |  3:05.30 |    121775    |   135679
        9  | 30:09.05 |  4:20.20 |    135680    |   155199
       10  | 34:29.25 |  3:34.60 |    155200    |   171309
       11  | 38:04.10 |  4:23.70 |    171310    |   191104
       12  | 42:28.05 |  3:14.45 |    191105    |   205699
       13  | 45:42.50 |  4:53.35 |    205700    |   227709
       14  | 50:36.10 |  4:10.40 |    227710    |   246499
       15  | 54:46.50 |  3:21.70 |    246500    |   261644
Range status and errors
Selected range
     Filename E:\Сергей Чумаков - От весны до весны [CD] - 1994 (lossless)\Сергей Чумаков - От весны до весны (1994).wav
     Peak level 100.0 %
     Extraction speed 2.6 X
     Range quality 99.9 %
     Test CRC 6D44FE20
     Copy CRC 6D44FE20
     Copy OK
No errors occurred
AccurateRip summary
Track  1  not present in database
Track  2  not present in database
Track  3  not present in database
Track  4  not present in database
Track  5  not present in database
Track  6  not present in database
Track  7  not present in database
Track  8  not present in database
Track  9  not present in database
Track 10  not present in database
Track 11  not present in database
Track 12  not present in database
Track 13  not present in database
Track 14  not present in database
Track 15  not present in database
None of the tracks are present in the AccurateRip database
End of status report
---- CUETools DB Plugin V2.1.3
[CTDB TOCID: hQqGA1JNrI6o.4GNa8_UNuEMa.8-] disk not present in database, Submit result: discs with pregaps not supported in this protocol version
==== Log checksum 45CD85782D626B831515BB81CE5256E3BAD55749390CB4161DB5877CD84C6276 ====

Отчёт auCDtect Task manager&#58;

-----------------------
DON'T MODIFY THIS FILE
-----------------------
PERFORMER: auCDtect Task Manager, ver. 1.6.0 RC1 build 1.6.0.1
Copyright (c) 2008-2010 y-soft. All rights reserved
http://y-soft.org
ANALYZER: auCDtect: CD records authenticity detector, version 0.8.2
Copyright (c) 2004 Oleg Berngardt. All rights reserved.
Copyright (c) 2004 Alexander Djourik. All rights reserved.
FILE: Сергей Чумаков - От весны до весны (1994).ape
  Size: 392811236 Hash: 383BC3E92C4A43A2E81CAA4BCB65C0D8 Accuracy: -m0
  Conclusion: CDDA 100%
  Signature: 49B6807B573A12C080BB7B0B2908B8457E4C796E
-
Яндекс.Метрика
Рейтинг@Mail.ru