Николай Басков - Два альбома (2001, 2004) [APE|Lossless]<Pop, Classical>

 

Создавать темы 21-Дек-2014 21:59

-Николай Басков - Два альбома (2001, 2004)- -Год: 2001, 2004
Жанр: Pop, Classical
Продолжительность: 02:02:59 (01:05:51+00:57:08)
Страна: Russia
Лейбл: МСК/Unknown
Каталожный №: МСК-0003 CD/Unknown
Кодек: APE (image+.cue+.log)
Битрейт: Lossless
Сканы: есть
Автор рипа: digital2015-Треклист:
"Шедевры уходящего ХХ века"
01 Barсelona
02 O Sole Mio
03 Sorrento
04 Ave Maria
05 Be My Love
06 Ария Каллафа Из Оперы "Турандот"
07 Застольная Из Оперы "Травиата"
08 Ах, Ты Душечка
09 Очи Черные
10 Дорогой Длинною
11 Калинка
12 Besame Mucho
13 Снова И Снова
14 Power Of Love
15 Yesterday
16 Призрак В Опере
17 Вера
18 Nabucco

Трэклист&#58; &#34;Nikolay Baskov in Concert&#34;&#58;

1. Barcelona [Larisa Rudakova; Nikolay Baskov] (Freddie Mercury; Mike Moran)
02. O sole mio [for voice & piano or orchestra] (DiCupua)
03. Sorrento (Ernesto de Curtis)
04. Ave Maria [for voice & piano; after Bach's Prelude No. 1 from the Well] (Charles Gounod; Johann Sebastian Bach; Traditional)
05. Be My Love [for voice & orchestra; from "The Toast of New Orleans"] (Nicholas Brodszky; Sammy Cahn)
06. Nessun Dorma [From Turandot] (Puccini; Traditional)
07. La Brindisi [Larisa Rudakova & Nikolay Baskov, rom "La Traviata"] (Traditional; Verdi)
08. L' Nemorino (Una Furtiva Lagrima) (Gaetano Donizetti; Traditional)
09. Kalinka (Little Snowfall) [folk song] (Traditional)
10. Down the Long Road (Fomin; Traditional)
11. Dark eyes ("Ochi chornye," "Black Eyes") [folk song] (Grebionka; Traditional)
12. Moscow Nights (Podmoskovniye vechera) (Matusovsky; Soloviev-Sodoy; Traditional)
13. Besame mucho [for voice & ensemble] (Consuelo Velázquez)
14. Phantom of the Opera [Larisa Rudakova & Nikolay Baskov] (Andrew Lloyd Webber; Charles Hart)
15. Yesterday (John Lennon; Paul McCartney)
16. Caruso [for voice & orchestra] (Dalla; Traditional)

Шедевры уходящего ХХ века&#58;

REM GENRE Pop
REM DATE 2001
REM DISCID FA0F6F12
REM COMMENT "ExactAudioCopy v1.0b3"
PERFORMER "Николай Басков"
TITLE "Шедевры Уходящего Века"
FILE "01. Николай Басков - "Шедевры Уходящего Века.ape" WAVE
  TRACK 01 AUDIO
    TITLE "Barсelona"
    PERFORMER "Николай Басков"
    INDEX 01 00:00:00
  TRACK 02 AUDIO
    TITLE "O Sole Mio"
    PERFORMER "Николай Басков"
    INDEX 00 05:36:61
    INDEX 01 05:39:52
  TRACK 03 AUDIO
    TITLE "Sorrento"
    PERFORMER "Николай Басков"
    INDEX 00 08:38:35
    INDEX 01 08:41:26
  TRACK 04 AUDIO
    TITLE "Ave Maria"
    PERFORMER "Николай Басков"
    INDEX 00 11:44:64
    INDEX 01 11:47:55
  TRACK 05 AUDIO
    TITLE "Be My Love"
    PERFORMER "Николай Басков"
    INDEX 00 14:38:31
    INDEX 01 14:40:57
  TRACK 06 AUDIO
    TITLE "Ария Каллафа Из Оперы 'Турандот'"
    PERFORMER "Николай Басков"
    INDEX 00 17:06:66
    INDEX 01 17:09:12
  TRACK 07 AUDIO
    TITLE "Застольная Из Оперы 'Травиата'"
    PERFORMER "Николай Басков"
    INDEX 00 20:12:30
    INDEX 01 20:14:51
  TRACK 08 AUDIO
    TITLE "Ах, Ты Душечка"
    PERFORMER "Николай Басков"
    INDEX 00 23:02:22
    INDEX 01 23:04:72
  TRACK 09 AUDIO
    TITLE "Очи Черные"
    PERFORMER "Николай Басков"
    INDEX 00 25:27:46
    INDEX 01 25:29:69
  TRACK 10 AUDIO
    TITLE "Дорогой Длинною"
    PERFORMER "Николай Басков"
    INDEX 00 28:55:32
    INDEX 01 28:58:08
  TRACK 11 AUDIO
    TITLE "Калинка"
    PERFORMER "Николай Басков"
    INDEX 00 32:43:32
    INDEX 01 32:45:59
  TRACK 12 AUDIO
    TITLE "Besame Mucho"
    PERFORMER "Николай Басков"
    INDEX 00 36:42:56
    INDEX 01 36:44:46
  TRACK 13 AUDIO
    TITLE "Снова И Снова"
    PERFORMER "Николай Басков"
    INDEX 00 40:43:41
    INDEX 01 40:46:20
  TRACK 14 AUDIO
    TITLE "Power Of Love"
    PERFORMER "Николай Басков"
    INDEX 00 44:16:19
    INDEX 01 44:18:66
  TRACK 15 AUDIO
    TITLE "Yesterday"
    PERFORMER "Николай Басков"
    INDEX 00 49:15:31
    INDEX 01 49:17:71
  TRACK 16 AUDIO
    TITLE "Призрак В Опере"
    PERFORMER "Николай Басков"
    INDEX 00 53:00:41
    INDEX 01 53:03:05
  TRACK 17 AUDIO
    TITLE "Вера"
    PERFORMER "Николай Басков"
    INDEX 00 57:35:51
    INDEX 01 57:38:16
  TRACK 18 AUDIO
    TITLE "Nabucco"
    PERFORMER "Николай Басков"
    INDEX 00 62:21:65
    INDEX 01 62:25:21

Nikolay Baskov in Concert&#58;

REM DATE 2004
REM DISCID CC0D6410
REM COMMENT "ExactAudioCopy v1.0b3"
PERFORMER "Николай Басков"
TITLE "Nikolay Baskov in Concert"
FILE "01. Николай Басков - Nikolay Baskov in Concert.ape" WAVE
  TRACK 01 AUDIO
    TITLE "Barcelona"
    PERFORMER "Larisa Rudakova; Nikolay Baskov"
    INDEX 01 00:00:00
  TRACK 02 AUDIO
    TITLE "O sole mio (for voice & piano or orchestra)"
    PERFORMER "Nikolay Baskov"
    INDEX 00 05:39:31
    INDEX 01 05:41:31
  TRACK 03 AUDIO
    TITLE "Sorrento"
    PERFORMER "Nikolay Baskov"
    INDEX 00 08:42:01
    INDEX 01 08:44:01
  TRACK 04 AUDIO
    TITLE "Ave Maria (for voice & piano; after Bach's Prelude No. 1 from the Well)"
    PERFORMER "Nikolay Baskov"
    INDEX 00 11:49:69
    INDEX 01 11:51:69
  TRACK 05 AUDIO
    TITLE "Be My Love (for voice & orchestra; from 'The Toast of New Orleans')"
    PERFORMER "Nikolay Baskov"
    INDEX 00 14:45:19
    INDEX 01 14:47:19
  TRACK 06 AUDIO
    TITLE "Nessun Dorma (From Turandot)"
    PERFORMER "Nikolay Baskov"
    INDEX 00 17:16:42
    INDEX 01 17:18:42
  TRACK 07 AUDIO
    TITLE "La Brindisi"
    PERFORMER "Larisa Rudakova & Nikolay Baskov, rom 'La Traviata'"
    INDEX 00 20:24:72
    INDEX 01 20:26:72
  TRACK 08 AUDIO
    TITLE "L' Nemorino (Una Furtiva Lagrima)"
    PERFORMER "Nikolay Baskov"
    INDEX 00 23:20:58
    INDEX 01 23:22:58
  TRACK 09 AUDIO
    TITLE "Kalinka (Little Snowfall)"
    PERFORMER "Nikolay Baskov"
    INDEX 00 26:54:52
    INDEX 01 26:56:52
  TRACK 10 AUDIO
    TITLE "Down the Long Road"
    PERFORMER "Nikolay Baskov"
    INDEX 00 30:58:58
    INDEX 01 31:00:58
  TRACK 11 AUDIO
    TITLE "Dark eyes ('Ochi chornye,' 'Black Eyes')"
    PERFORMER "Nikolay Baskov"
    INDEX 00 34:22:27
    INDEX 01 34:24:27
  TRACK 12 AUDIO
    TITLE "Moscow Nights (Podmoskovniye vechera)"
    PERFORMER "Nikolay Baskov"
    INDEX 00 37:42:61
    INDEX 01 37:44:61
  TRACK 13 AUDIO
    TITLE "Besame mucho (for voice & ensemble)"
    PERFORMER "Nikolay Baskov"
    INDEX 00 41:37:05
    INDEX 01 41:39:05
  TRACK 14 AUDIO
    TITLE " Phantom of the Opera"
    PERFORMER "[Larisa Rudakova & Nikolay Baskov"
    INDEX 00 45:00:01
    INDEX 01 45:02:01
  TRACK 15 AUDIO
    TITLE "Yesterday"
    PERFORMER "Nikolay Baskov"
    INDEX 00 49:37:10
    INDEX 01 49:39:10
  TRACK 16 AUDIO
    TITLE "Caruso"
    PERFORMER "Nikolay Baskov"
    INDEX 00 53:23:04
    INDEX 01 53:25:04

Шедевры уходящего ХХ века&#58;

Exact Audio Copy V1.0 beta 3 from 29. August 2011
EAC extraction logfile from 1. December 2014, 18:21
Николай Басков / Шедевры Уходящего Века
Used drive  : TSSTcorpCDDVDW SH-S223C   Adapter: 3  ID: 0
Read mode               : Secure
Utilize accurate stream : Yes
Defeat audio cache      : Yes
Make use of C2 pointers : No
Read offset correction                      : 697
Overread into Lead-In and Lead-Out          : No
Fill up missing offset samples with silence : Yes
Delete leading and trailing silent blocks   : No
Null samples used in CRC calculations       : Yes
Used interface                              : Native Win32 interface for Win NT & 2000
Used output format : Internal WAV Routines
Sample format      : 44.100 Hz; 16 Bit; Stereo
TOC of the extracted CD
     Track |   Start  |  Length  | Start sector | End sector
    ---------------------------------------------------------
        1  |  0:00.00 |  5:39.52 |         0    |    25476
        2  |  5:39.52 |  3:01.49 |     25477    |    39100
        3  |  8:41.26 |  3:06.29 |     39101    |    53079
        4  | 11:47.55 |  2:53.02 |     53080    |    66056
        5  | 14:40.57 |  2:28.30 |     66057    |    77186
        6  | 17:09.12 |  3:05.39 |     77187    |    91100
        7  | 20:14.51 |  2:50.21 |     91101    |   103871
        8  | 23:04.72 |  2:24.72 |    103872    |   114743
        9  | 25:29.69 |  3:28.14 |    114744    |   130357
       10  | 28:58.08 |  3:47.51 |    130358    |   147433
       11  | 32:45.59 |  3:58.62 |    147434    |   165345
       12  | 36:44.46 |  4:01.49 |    165346    |   183469
       13  | 40:46.20 |  3:32.46 |    183470    |   199415
       14  | 44:18.66 |  4:59.05 |    199416    |   221845
       15  | 49:17.71 |  3:45.09 |    221846    |   238729
       16  | 53:03.05 |  4:35.11 |    238730    |   259365
       17  | 57:38.16 |  4:47.05 |    259366    |   280895
       18  | 62:25.21 |  3:25.66 |    280896    |   296336
Range status and errors
Selected range
     Filename E:\Николай Басков - Два альбома [2CD] - 2001, 2004 (lossless)\01. Николай Басков - Шедевры уходящего ХХ века (2001)\Николай Басков - Шедевры Уходящего Века.wav
     Peak level 98.8 %
     Extraction speed 3.2 X
     Range quality 99.9 %
     Test CRC E0A1DF25
     Copy CRC E0A1DF25
     Copy OK
No errors occurred
AccurateRip summary
Track  1  cannot be verified as accurate (confidence 1)  [F6B5DAFF], AccurateRip returned [3673FC59]  (AR v2)
Track  2  cannot be verified as accurate (confidence 1)  [0FDA8274], AccurateRip returned [2ABB98A9]  (AR v2)
Track  3  cannot be verified as accurate (confidence 1)  [4F7CE9D9], AccurateRip returned [B70507AD]  (AR v2)
Track  4  cannot be verified as accurate (confidence 1)  [B247690D], AccurateRip returned [7D01449B]  (AR v2)
Track  5  cannot be verified as accurate (confidence 1)  [88F6CFB2], AccurateRip returned [9F5A5C82]  (AR v2)
Track  6  cannot be verified as accurate (confidence 1)  [79784D56], AccurateRip returned [309A4825]  (AR v2)
Track  7  cannot be verified as accurate (confidence 1)  [635A6279], AccurateRip returned [2708F623]  (AR v2)
Track  8  cannot be verified as accurate (confidence 1)  [9C5B5121], AccurateRip returned [07C10A3D]  (AR v2)
Track  9  cannot be verified as accurate (confidence 1)  [70F0192F], AccurateRip returned [D1C4CB2E]  (AR v2)
Track 10  cannot be verified as accurate (confidence 1)  [9A467E74], AccurateRip returned [90E641D3]  (AR v2)
Track 11  cannot be verified as accurate (confidence 1)  [D0B4B616], AccurateRip returned [0E6DB7A5]  (AR v2)
Track 12  cannot be verified as accurate (confidence 1)  [4C624910], AccurateRip returned [53D74A9B]  (AR v2)
Track 13  cannot be verified as accurate (confidence 1)  [C69F139B], AccurateRip returned [5B62D767]  (AR v2)
Track 14  cannot be verified as accurate (confidence 1)  [62F9F4C6], AccurateRip returned [AB72EB21]  (AR v2)
Track 15  cannot be verified as accurate (confidence 1)  [78D42965], AccurateRip returned [6A2D01A9]  (AR v2)
Track 16  cannot be verified as accurate (confidence 1)  [5AFE0C69], AccurateRip returned [D09C57CD]  (AR v2)
Track 17  cannot be verified as accurate (confidence 1)  [CD4746B0], AccurateRip returned [6266F207]  (AR v2)
Track 18  cannot be verified as accurate (confidence 1)  [015EEB23], AccurateRip returned [926F0C48]  (AR v2)
No tracks could be verified as accurate
You may have a different pressing from the one(s) in the database
End of status report
---- CUETools DB Plugin V2.1.3
[CTDB TOCID: QVcJmpobAezx5aR6d7hNt7_seGY-] found, Submit result: QVcJmpobAezx5aR6d7hNt7_seGY- has been confirmed
[d5865874] (1/1) Accurately ripped
==== Log checksum 84BD197C96C9BB347C687A84CFA16F18ED861E51C6F8EFCCACA75E8B2CB3E5CC ====

Nikolay Baskov in Concert&#58;

Exact Audio Copy V1.0 beta 3 from 29. August 2011
EAC extraction logfile from 2. December 2014, 12:37
Николай Басков / Nikolay Baskov in Concert
Used drive  : TSSTcorpCDDVDW SH-S223C   Adapter: 3  ID: 0
Read mode               : Secure
Utilize accurate stream : Yes
Defeat audio cache      : Yes
Make use of C2 pointers : No
Read offset correction                      : 697
Overread into Lead-In and Lead-Out          : No
Fill up missing offset samples with silence : Yes
Delete leading and trailing silent blocks   : No
Null samples used in CRC calculations       : Yes
Used interface                              : Native Win32 interface for Win NT & 2000
Used output format : Internal WAV Routines
Sample format      : 44.100 Hz; 16 Bit; Stereo
TOC of the extracted CD
     Track |   Start  |  Length  | Start sector | End sector
    ---------------------------------------------------------
        1  |  0:00.00 |  5:41.31 |         0    |    25605
        2  |  5:41.31 |  3:02.45 |     25606    |    39300
        3  |  8:44.01 |  3:07.68 |     39301    |    53393
        4  | 11:51.69 |  2:55.25 |     53394    |    66543
        5  | 14:47.19 |  2:31.23 |     66544    |    77891
        6  | 17:18.42 |  3:08.30 |     77892    |    92021
        7  | 20:26.72 |  2:55.61 |     92022    |   105207
        8  | 23:22.58 |  3:33.69 |    105208    |   121251
        9  | 26:56.52 |  4:04.06 |    121252    |   139557
       10  | 31:00.58 |  3:23.44 |    139558    |   154826
       11  | 34:24.27 |  3:20.34 |    154827    |   169860
       12  | 37:44.61 |  3:54.19 |    169861    |   187429
       13  | 41:39.05 |  3:22.71 |    187430    |   202650
       14  | 45:02.01 |  4:37.09 |    202651    |   223434
       15  | 49:39.10 |  3:45.69 |    223435    |   240378
       16  | 53:25.04 |  3:43.22 |    240379    |   257125
Range status and errors
Selected range
     Filename E:\Николай Басков - Два альбома [2CD] - 2001, 2004 (lossless)\02. Николай Басков - Nikolay Baskov in Concert (2004)\01. Николай Басков - Nikolay Baskov in Concert.wav
     Peak level 39.3 %
     Extraction speed 2.3 X
     Range quality 100.0 %
     Test CRC CC210264
     Copy CRC CC210264
     Copy OK
No errors occurred
AccurateRip summary
Track  1  not present in database
Track  2  not present in database
Track  3  not present in database
Track  4  not present in database
Track  5  not present in database
Track  6  not present in database
Track  7  not present in database
Track  8  not present in database
Track  9  not present in database
Track 10  not present in database
Track 11  not present in database
Track 12  not present in database
Track 13  not present in database
Track 14  not present in database
Track 15  not present in database
Track 16  not present in database
None of the tracks are present in the AccurateRip database
End of status report
---- CUETools DB Plugin V2.1.3
[CTDB TOCID: FjtgOdSO3RSTSJLCEEzn1bGXMTE-] disk not present in database, Submit result: FjtgOdSO3RSTSJLCEEzn1bGXMTE- has been uploaded
==== Log checksum 2CB7C3A9D4B990369B67E07B15ADB0F7AA65AA3F0ED0A492234100EAD1369BA3 ====

Шедевры уходящего ХХ века&#58;

-----------------------
DON'T MODIFY THIS FILE
-----------------------
PERFORMER: auCDtect Task Manager, ver. 1.6.0 RC1 build 1.6.0.1
Copyright (c) 2008-2010 y-soft. All rights reserved
http://y-soft.org
ANALYZER: auCDtect: CD records authenticity detector, version 0.8.2
Copyright (c) 2004 Oleg Berngardt. All rights reserved.
Copyright (c) 2004 Alexander Djourik. All rights reserved.
FILE: 01. Николай Басков - Шедевры Уходящего Века.ape
  Size: 407646568 Hash: F2A3D802BAB479E4CB96B99F4D49E219 Accuracy: -m0
  Conclusion: CDDA 100%
  Signature: D621C0C1E28E6AFF407F1B340BD8D42C84CC205B

Nikolay Baskov in Concert&#58;

-----------------------
DON'T MODIFY THIS FILE
-----------------------
PERFORMER: auCDtect Task Manager, ver. 1.6.0 RC1 build 1.6.0.1
Copyright (c) 2008-2010 y-soft. All rights reserved
http://y-soft.org
ANALYZER: auCDtect: CD records authenticity detector, version 0.8.2
Copyright (c) 2004 Oleg Berngardt. All rights reserved.
Copyright (c) 2004 Alexander Djourik. All rights reserved.
FILE: 01. Николай Басков - Nikolay Baskov in Concert.ape
  Size: 327808168 Hash: FFF0B60673D7DCC15FFCDF005CC401AD Accuracy: -m0
  Conclusion: CDDA 100%
  Signature: 725963291C8F0A82007392E60FC689F7AF648100
-"Nikolay Baskov in Concert" - неофициальный релиз, готовившийся (по слухам) для США. Несмотря на то, что трэклисты обоих альбомов практически идентичны, некоторые произведения исполнены по разному.-
Яндекс.Метрика
Рейтинг@Mail.ru