Арамис - Девочка ждёт (1994) [FLAC|Lossless]<Pop>

 

Создавать темы 21-Дек-2014 21:59

-Арамис - Девочка ждёт (1994)- Год: 1994
Жанр: Pop
Продолжительность: 01:03:04
Издатель (лейбл): НП-РЕКОРДС
Страна: Россия
Тип рипа: image+.cue
Кодек: FLAC
Битрейт: Lossless
Треклист:
01 - Ирина
02 - Школьница
03 - Куда уходит день?
04 - Юноша
05 - Королева двора
06 - Дагомыс
07 - Валерия
08 - Мы одни
09 - Жёлтое окно
10 - Тимофей
11 - Старший брат
12 - До свидания,кошка
13 - Зеркало
14 - Девочка ждёт...
15 - Не говори мне Нет

Отчёт ЕАС&#58;

Exact Audio Copy V1.0 beta 3 from 29. August 2011
EAC extraction logfile from 9. December 2012, 10:53
Арамис / Девочка ждёт...
Used drive  : Optiarc DVD RW AD-7240S   Adapter: 0  ID: 1
Read mode               : Secure
Utilize accurate stream : Yes
Defeat audio cache      : Yes
Make use of C2 pointers : No
Read offset correction                      : 48
Overread into Lead-In and Lead-Out          : No
Fill up missing offset samples with silence : Yes
Delete leading and trailing silent blocks   : No
Null samples used in CRC calculations       : Yes
Used interface                              : Native Win32 interface for Win NT & 2000
Used output format              : User Defined Encoder
Selected bitrate                : 1024 kBit/s
Quality                         : High
Add ID3 tag                     : No
Command line compressor         : D:\Program Files (x86)\FLAC\flac.exe
Additional command line options : -V -8 -T "Date=%year%" -T "Genre=%genre%" %source%
TOC of the extracted CD
     Track |   Start  |  Length  | Start sector | End sector
    ---------------------------------------------------------
        1  |  0:00.35 |  3:45.18 |        35    |    16927
        2  |  3:45.53 |  3:30.60 |     16928    |    32737
        3  |  7:16.38 |  4:33.25 |     32738    |    53237
        4  | 11:49.63 |  3:53.42 |     53238    |    70754
        5  | 15:43.30 |  4:03.08 |     70755    |    88987
        6  | 19:46.38 |  4:07.32 |     88988    |   107544
        7  | 23:53.70 |  3:20.03 |    107545    |   122547
        8  | 27:13.73 |  5:22.25 |    122548    |   146722
        9  | 32:36.23 |  4:20.10 |    146723    |   166232
       10  | 36:56.33 |  5:14.72 |    166233    |   189854
       11  | 42:11.30 |  3:55.65 |    189855    |   207544
       12  | 46:07.20 |  4:22.58 |    207545    |   227252
       13  | 50:30.03 |  4:33.17 |    227253    |   247744
       14  | 55:03.20 |  4:10.35 |    247745    |   266529
       15  | 59:13.55 |  3:50.45 |    266530    |   283824
Range status and errors
Selected range
     Filename C:\Users\KoloboK\Music\Арамис - Девочка ждёт....wav
     Peak level 100.0 %
     Extraction speed 4.3 X
     Range quality 100.0 %
     Test CRC 9A481AB8
     Copy CRC 9A481AB8
     Copy OK
No errors occurred
End of status report
---- CUETools DB Plugin V2.1.3
[CTDB TOCID: 8rPvqXgyI0kGwgPxph7dNhg2Qn4-] disk not present in database, Submit result: discs with pregaps not supported in this protocol version
==== Log checksum 02D087D0F843F795600FB2B9B1A0E68D9384FE24D3A427594674EF5C775533E9 ====

Отчёт auCDtect Task manager&#58;

-----------------------
DON'T MODIFY THIS FILE
-----------------------
PERFORMER: auCDtect Task Manager, ver. 1.6.0 RC1 build 1.6.0.1
Copyright (c) 2008-2010 y-soft. All rights reserved
http://y-soft.org
ANALYZER: auCDtect: CD records authenticity detector, version 0.8.2
Copyright (c) 2004 Oleg Berngardt. All rights reserved.
Copyright (c) 2004 Alexander Djourik. All rights reserved.
FILE: Арамис - Девочка ждёт....flac
  Size: 416388741 Hash: F6E560BCD4A7BE2A7245C2C24FC601AF Accuracy: -m0
  Conclusion: CDDA 100%
  Signature: E0A36F33DF7BF6EC859A0D614AB9E99D9CB1FCD0
-
Яндекс.Метрика
Рейтинг@Mail.ru