Евгений Осин - Новое и лучшее. Star Hit Звездная коллекция (2010) [FLAC|Lossless]<Pop>

 

Создавать темы 21-Дек-2014 21:59

-Евгений Осин - Новое и лучшее. Star Hit Звездная коллекция (2010)- Год: 2010
Жанр: Pop
Продолжительность: 01:10:22
Тип рипа: image+.cue
Кодек: FLAC
Битрейт: Lossless
Треклист:
01 Мальчишка
02 8-е марта
03 Не верю
04 Плачет девушка в автомате
05 Не плачь
06 Две девушки
07 Не ходи со мною рядом
08 Студентка-практикантка
09 Стоп, люди
10 Качка
11 Таня + Володя
12 Для чего?
13 Маленькая девочка
14 Таллин
15 Птицы-миражи
16 Мечта
17 Простите

Отчёт ЕАС&#58;

Exact Audio Copy V0.99 prebeta 5 from 4. May 2009
Отчёт EAC об извлечении, выполненном 12. июня 2010, 17:02
Евгений Осин / Новое и лучшее. Star Hit-Звездная коллекция
Дисковод: PIONEER DVD-RW  DVR-212   Adapter: 8  ID: 0
Режим чтения                 : Достоверность
Использование точного потока : Да
Отключение кэша аудио        : Да
Использование указателей C2  : Нет
Коррекция смещения при чтении                     : 48
Способность читать области Lead-in и Lead-out     : Нет
Заполнение пропущенных сэмплов тишиной            : Да
Удаление блоков с тишиной в начале и конце        : Нет
При вычислениях CRC использовались нулевые сэмплы : Да
Интерфейс                                         : Установленный внешний ASPI-интерфейс
Выходной формат : Внутренние WAV-операции
Формат сэмплов  : 44.100 Гц; 16 бит; стерео
TOC извлечённого CD
     Трек |   Старт  | Длительность | Начальный сектор | Конечный сектор
    ---------------------------------------------------------------------
       1  |  0:00.00 |    3:48.43   |           0      |      17142
       2  |  3:48.43 |    3:43.45   |       17143      |      33912
       3  |  7:32.13 |    3:56.04   |       33913      |      51616
       4  | 11:28.17 |    2:41.35   |       51617      |      63726
       5  | 14:09.52 |    4:09.34   |       63727      |      82435
       6  | 18:19.11 |    3:40.09   |       82436      |      98944
       7  | 21:59.20 |    2:58.52   |       98945      |     112346
       8  | 24:57.72 |    4:43.21   |      112347      |     133592
       9  | 29:41.18 |    5:18.67   |      133593      |     157509
      10  | 35:00.10 |    3:08.33   |      157510      |     171642
      11  | 38:08.43 |    3:34.62   |      171643      |     187754
      12  | 41:43.30 |    3:43.63   |      187755      |     204542
      13  | 45:27.18 |    2:25.05   |      204543      |     215422
      14  | 47:52.23 |    4:38.40   |      215423      |     236312
      15  | 52:30.63 |    3:34.55   |      236313      |     252417
      16  | 56:05.43 |    5:32.17   |      252418      |     277334
      17  | 61:37.60 |    4:09.21   |      277335      |     296030
Характеристики диапазона извлечения и сообщения об ошибках
Выбранный диапазон
     Имя файла J:\MP3\Евгений Осин (FLAC)\Евгений Осин - Новое и лучшее. Star Hit-Звездная коллекция (2010)\Евгений Осин - Новое и лучшее. Star Hit-Звездная коллекция.wav
     Пиковый уровень 97.7 %
     Качество диапазона 100.0 %
     CRC теста 3DE82DD2
     CRC копии 3DE82DD2
     Копирование... OK
Ошибок не произошло
AccurateRip: сводка
Трек  1  нет в базе данных
Трек  2  нет в базе данных
Трек  3  нет в базе данных
Трек  4  нет в базе данных
Трек  5  нет в базе данных
Трек  6  нет в базе данных
Трек  7  нет в базе данных
Трек  8  нет в базе данных
Трек  9  нет в базе данных
Трек 10  нет в базе данных
Трек 11  нет в базе данных
Трек 12  нет в базе данных
Трек 13  нет в базе данных
Трек 14  нет в базе данных
Трек 15  нет в базе данных
Трек 16  нет в базе данных
Трек 17  нет в базе данных
Ни одного трека нет в базе AccurateRip
Конец отчёта

Отчёт auCDtect Task manager&#58;

-----------------------
DON'T MODIFY THIS FILE
-----------------------
PERFORMER: auCDtect Task Manager, ver. 1.6.0 RC1 build 1.6.0.1
Copyright (c) 2008-2010 y-soft. All rights reserved
http://y-soft.org
ANALYZER: auCDtect: CD records authenticity detector, version 0.8.2
Copyright (c) 2004 Oleg Berngardt. All rights reserved.
Copyright (c) 2004 Alexander Djourik. All rights reserved.
FILE: Евгений Осин - Новое и лучшее. Star Hit-Звездная коллекция.flac
  Size: 413295338 Hash: 9185287C657571280A6CEB9DA39FDB3C Accuracy: -m0
  Conclusion: MPEG 95%
  Signature: 5AAC708D8C7B5AB50AD470165170BBD644A0CC18

+

-Время раздачи: 24/по мере возможности
Яндекс.Метрика
Рейтинг@Mail.ru