[ Сегодня на трекере фрилич! Идет свободное скачивание без начисления Download ]

Сергей Минаев - Пират XX века (2006) [APE|Lossless]<Pop>

 

Создавать темы 21-Дек-2014 21:59

-Сергей Минаев - Пират XX века (2006)- Год: 2006
Жанр: Pop
Продолжительность: 01:18:41
Производитель диска: РФ, «Союз»
Тип рипа: image+.cue
Кодек: APE
Битрейт: Lossless
Треклист:
01. Карнавал
02. Ты мой хлеб, моя соль
03. Юра – вумен, Вася – мен
04. Лучшая песня – Шалалула
05. Братец Луи
06. ВДНХ
07. 22 притопа
08. Карина
09. В Москву идти далёко
10. Я слышу твой голос
11. Вы готовы пойти со мной
12. Макарена
13. Шерри-Бренди
14. Мини-макси
15. Свеча на ветру
16. Сиреневый кадиллак
17. Мы в месте «А–5»
18. Ох, уж этот «Взгляд»
19. Анжелика

Дополнительная информация&#58;

01. Карнавал
Русский текст: Сергей Минаев
Original title «Stars de la Pub (L'avion decolle sur les Champs-Elyses)»
Music and Lyrics: by F. Mercier/D. Fairstein Published by: Scorpio Music, SACEM
© OOO «Ворнер/Чаппел»
02. Ты мой хлеб, моя соль
Русский текст: Сергей Минаев
Original title: «You're my heart, You're my soul» Music: D. Bohlen, Lyrics: D. Bohlen
Published by BLUE OBSESSION/ HANSA MUSIK VERLAG/HANSEATIC MUSIKVERLAG
© BMG MUSIC PUBLISHING INTERNATIONAL LIMITED – Музыкальное издательство Свит Ойли Мьюзик»
© OOO «Ворнер/Чаппел»
03. Юра – вумен, Вася – мен
Русский текст: Сергей Минаев
Original title: «You're a woman» Авторы: Applegate M./ Harren К. Van/ Tony Hendrik
Published by HANSEATIC MUSIKVERIAG GMBH & CO KG
© OOO «Ворнер/Чаппел»
04. Лучшая песня – Шалалула
Автор музыки и слов: С. Минаев
© С. Минаев
05. Братец Луи
Русский текст: Сергей Минаев
Original title «Brothe Louie» Music D. Bohlen, Lyrics: D. Bohlen
Published by BLUE OBSESSION/ HANSA MUSIK VERLAG/HANSEATIC MUSIKVERLAG © BMG MUSIC PUBLISHING INTERNATIONAL LIMITED – Музыкальное издательство Свит Ойли Мьюзик»
© OOO «Ворнер/Чаппел»
06. ВДНХ
Русский текст: Сергей Минаев
Original title: «U.S.S.R» Авторы: М. Chieregato / Hooker. T/R. Turatti
Published by ABRAMO ALLIONE EDIZIONI MUSICALI SRL (SLAE) & CHAPULIN ED. MUS.
ALL RIGHTS ON BEHALF OF ABRAMO ALLIONE EDIZIONI MUSICALI SRL(SIAE)
ADMINISTERED BY WB MUSIC CORP.
© OOO «Ворнер/Чаппел» © Universal music publishing
07. 22 притопа
Автор музыки и слов: С. Минаев
© С. Минаев
08. Карина
Автор музыки и слов: С. Минаев
© С. Минаев
09. В Москву идти далёко
Русский текст: Сергей Минаев
Original title «Me Estoy Volviendo Loco» Авторы: M. Chieregato / Hooker. T/R. Turatti
Published by WARNER CHAPPELL MUSIC SPAIN S A
© OOO «Ворнер/Чаппел»
10. Я слышу твой голос
Русский текст: Cepгей Минаев
Original title «Atlantic is calling» Music: D. Bohlen, Lyrics: D. Bohlen Published by BLUE OBSESSION/ HANSA MUSIK VERLAG/HANSEATIC MUSIKVERLAG © BMG MUSIC PUBLISHING INTERNATIONAL LIMITED – Музыкальное издательство Свит Ойли Мьюзик»
© OOO «Ворнер/Чаппел»
11. Вы готовы пойти со мной?
Русский текст: Сергей Минаев
Original title «Are you ready» Music: Paul Liebnau Lyrics: Shalah Addelegou © by Musikverlag Bernhard Mikulski, Frankfurt/Main
12. Макарена
Русский текст: Сергей Минаев
Original title: «Macarena» Авторы: A.R Monge / P. Ruiz Published by WARNER CHAPPELL MUSIC SPAIN S A
© OOO «Ворнер/Чаппел»
13. Шерри – Бренди
Русский текст: Сергей Минаев
Original title «Cherry Lady» Music D. Bohlen, Lyrics: D. Bohlen
Published by BLUE OBSESSION/ HANSA MUSIK VERLAG/HANSEATIC MUSIKVERLAG
© BMG MUSIC PUBLISHING INTERNATIONAL LIMITED – Музыкальное издательство Свит Ойли Мьюзик»
14. Мини-макси
Автор музыки и слов: С. Минаев
© С. Минаев
15. Свеча на ветру
Автор музыки: С. Минаев, Автор слов: К.Кавалерян
© Первое музыкальное Издательство
16. Сиреневый кадиллак
Русский текст: Сергей Минаев
Original title: «Geronimo's Cadillac» Music: D. Bohlen, Lyrics: D. Bohlen
Published by BLUE OBSESSION/ HANSA MUSIK VERLAG/HANSEATIC MUSIKVERLAG
© BMG MUSIC PUBLISHING LNTERNATIONAL LIMITED –
Музыкальное издательство Свит Ойли Мьюзик»
© OOO «Ворнер/Чаппел»
17. Мы в месте «А-5»
Автор музыки и слов: С. Минаев
© С. Минаев
18. Ох, уж этот «Взгляд»
Автор музыки и слов: С. Минаев
© С. Минаев
19. Анжелика
Автор музыки и слов: С. Минаев
© С. Минаев

Отчёт ЕАС&#58;

Exact Audio Copy V0.99 prebeta 4 from 23. January 2008
Отчёт EAC об извлечении, выполненном 4. апреля 2009, 0:40
Сергей Минаев / Пират XX века
Дисковод: LITE-ON DVDRW SOHW-1653S   Adapter: 4  ID: 1
Режим чтения                 : Достоверность
Использование точного потока : Да
Отключение кэша аудио        : Да
Использование указателей C2  : Нет
Коррекция смещения при чтении                     : 12
Способность читать области Lead-in и Lead-out     : Нет
Заполнение пропущенных сэмплов тишиной            : Да
Удаление блоков с тишиной в начале и конце        : Нет
При вычислениях CRC использовались нулевые сэмплы : Да
Интерфейс                                         : Установленный внешний ASPI-интерфейс
Выходной формат : Внутренние WAV-операции
Формат сэмплов  : 44.100 Гц; 16 бит; стерео
TOC извлечённого CD
     Трек |   Старт  | Длительность | Начальный сектор | Конечный сектор
    ---------------------------------------------------------------------
       1  |  0:00.00 |    4:27.21   |           0      |      20045
       2  |  4:27.21 |    4:01.23   |       20046      |      38143
       3  |  8:28.44 |    3:55.17   |       38144      |      55785
       4  | 12:23.61 |    4:02.04   |       55786      |      73939
       5  | 16:25.65 |    4:56.20   |       73940      |      96159
       6  | 21:22.10 |    4:19.47   |       96160      |     115631
       7  | 25:41.57 |    3:25.08   |      115632      |     131014
       8  | 29:06.65 |    4:16.50   |      131015      |     150264
       9  | 33:23.40 |    3:52.01   |      150265      |     167665
      10  | 37:15.41 |    3:53.00   |      167666      |     185140
      11  | 41:08.41 |    4:19.48   |      185141      |     204613
      12  | 45:28.14 |    3:48.46   |      204614      |     221759
      13  | 49:16.60 |    3:57.16   |      221760      |     239550
      14  | 53:14.01 |    5:12.42   |      239551      |     262992
      15  | 58:26.43 |    3:45.08   |      262993      |     279875
      16  | 62:11.51 |    4:00.21   |      279876      |     297896
      17  | 66:11.72 |    4:45.01   |      297897      |     319272
      18  | 70:56.73 |    3:42.23   |      319273      |     335945
      19  | 74:39.21 |    4:01.71   |      335946      |     354091
Характеристики диапазона извлечения и сообщения об ошибках
Выбранный диапазон
     Пиковый уровень 97.8 %
     Качество диапазона 99.9 %
     CRC копии ECFEC764
     Копирование... OK
Ошибок не произошло
Конец отчёта

Отчёт auCDtect Task manager&#58;

-----------------------
DON'T MODIFY THIS FILE
-----------------------
PERFORMER: auCDtect Task Manager, ver. 1.6.0 RC1 build 1.6.0.1
Copyright (c) 2008-2010 y-soft. All rights reserved
http://y-soft.org
ANALYZER: auCDtect: CD records authenticity detector, version 0.8.2
Copyright (c) 2004 Oleg Berngardt. All rights reserved.
Copyright (c) 2004 Alexander Djourik. All rights reserved.
FILE: Сергей Минаев - Пират XX века.ape
  Size: 599378520 Hash: 8B84F7F0BF6DED82206B226E6E5AB35D Accuracy: -m0
  Conclusion: CDDA 100%
  Signature: B572AB958CA406427DF6B655079C327E42ECE582
-
Яндекс.Метрика
Рейтинг@Mail.ru