Игорь Николаев - Пятнадцать лет. Лучшие песни (1982-1997) (1996) [APE|Lossless]<Pop>

 

Создавать темы 21-Дек-2014 21:59

-Игорь Николаев - Пятнадцать лет. Лучшие песни (1982-1997) (1996)- Год: 1996
Жанр: Pop
Продолжительность: 01:10:52
Тип рипа: image+.cue
Кодек: APE
Битрейт: Lossless
Треклист:
01 - Мастер и Маргарита (4:10)
02 - Раскаты грома (3:37)
03 - Такси,такси (4:38)
04 - Там нет меня (3:39)
05 - Мельница (3:06)
06 - Выпьем за любовь ! (4:14)
07 - Пожалуйста,не плачь (2:57)
08 - Дельфин и Русалка (3:32)
09 - Моя последняя нежность (5:12)
10 - Благославляю этот вечер (4:21)
11 - Миражи (4:59)
12 - Котёнок (2:24)
13 - Малиновое вино (4:12)
14 - Русские в Америке (4:52)
15 - Поздравляю ! (4:11)
16 - Пятнадцать лет (4:02)
17 - Бедный Моцарт (3:12)
18 - Долгие проводы-лишние слёзы (4:03)

Отчёт ЕАС&#58;

Exact Audio Copy V0.99 prebeta 5 from 4. May 2009
Отчёт EAC об извлечении, выполненном 24. августа 2009, 19:35
Игорь Николаев / Пятнадцать Лет (Лучшие Песни 1982-1997)
Дисковод: HL-DT-STDVD-RAM GH22NS30   Adapter: 3  ID: 0
Режим чтения                 : Достоверность
Использование точного потока : Да
Отключение кэша аудио        : Да
Использование указателей C2  : Нет
Коррекция смещения при чтении                     : 102
Способность читать области Lead-in и Lead-out     : Нет
Заполнение пропущенных сэмплов тишиной            : Да
Удаление блоков с тишиной в начале и конце        : Нет
При вычислениях CRC использовались нулевые сэмплы : Да
Интерфейс                                         : Установленный внешний ASPI-интерфейс
Выходной формат : Внутренние WAV-операции
Формат сэмплов  : 44.100 Гц; 16 бит; стерео
TOC извлечённого CD
     Трек |   Старт  | Длительность | Начальный сектор | Конечный сектор
    ---------------------------------------------------------------------
       1  |  0:00.02 |    4:14.03   |           2      |      19054
       2  |  4:14.05 |    3:37.07   |       19055      |      35336
       3  |  7:51.12 |    4:38.30   |       35337      |      56216
       4  | 12:29.42 |    3:31.45   |       56217      |      72086
       5  | 16:01.12 |    3:07.53   |       72087      |      86164
       6  | 19:08.65 |    4:12.30   |       86165      |     105094
       7  | 23:21.20 |    2:57.50   |      105095      |     118419
       8  | 26:18.70 |    3:31.27   |      118420      |     134271
       9  | 29:50.22 |    5:07.58   |      134272      |     157354
      10  | 34:58.05 |    4:21.12   |      157355      |     176941
      11  | 39:19.17 |    4:58.08   |      176942      |     199299
      12  | 44:17.25 |    2:25.35   |      199300      |     210209
      13  | 46:42.60 |    4:10.42   |      210210      |     229001
      14  | 50:53.27 |    4:49.15   |      229002      |     250691
      15  | 55:42.42 |    4:09.48   |      250692      |     269414
      16  | 59:52.15 |    4:02.40   |      269415      |     287604
      17  | 63:54.55 |    3:09.52   |      287605      |     301831
      18  | 67:04.32 |    4:01.33   |      301832      |     319939
Характеристики диапазона извлечения и сообщения об ошибках
Выбранный диапазон
     Имя файла C:\Users\[email protected]\Desktop\Игорь Николаев - Пятнадцать лет.Лучшие песни( 1982-1997)\Игорь Николаев - Пятнадцать Лет (Лучшие Песни 1982-1997).wav
     Пиковый уровень 100.0 %
     Качество диапазона 100.0 %
     CRC копии 98CD7A99
     Копирование... OK
Ошибок не произошло
AccurateRip: сводка
Трек  1  нет в базе данных
Трек  2  нет в базе данных
Трек  3  нет в базе данных
Трек  4  нет в базе данных
Трек  5  нет в базе данных
Трек  6  нет в базе данных
Трек  7  нет в базе данных
Трек  8  нет в базе данных
Трек  9  нет в базе данных
Трек 10  нет в базе данных
Трек 11  нет в базе данных
Трек 12  нет в базе данных
Трек 13  нет в базе данных
Трек 14  нет в базе данных
Трек 15  нет в базе данных
Трек 16  нет в базе данных
Трек 17  нет в базе данных
Трек 18  нет в базе данных
Ни одного трека нет в базе AccurateRip
Конец отчёта

Отчёт auCDtect Task manager&#58;

-----------------------
DON'T MODIFY THIS FILE
-----------------------
PERFORMER: auCDtect Task Manager, ver. 1.6.0 RC1 build 1.6.0.1
Copyright (c) 2008-2010 y-soft. All rights reserved
http://y-soft.org
ANALYZER: auCDtect: CD records authenticity detector, version 0.8.2
Copyright (c) 2004 Oleg Berngardt. All rights reserved.
Copyright (c) 2004 Alexander Djourik. All rights reserved.
FILE: Игорь Николаев - Пятнадцать Лет (Лучшие Песни 1982-1997).ape
  Size: 477775700 Hash: 383611ECC46A20C299E6A4023D8FF8CB Accuracy: -m0
  Conclusion: CDDA 100%
  Signature: AEEEF27C88B3F957A75FB021DF492F1F4C68DC80
-
Яндекс.Метрика
Рейтинг@Mail.ru