[ Сегодня на трекере фрилич! Идет свободное скачивание без начисления Download ]

Наталья Ветлицкая - The Best. Легенды Русского радио (2004) [APE|Lossless]<Pop>

 

Создавать темы 21-Дек-2014 21:59

-Наталья Ветлицкая - The Best. Легенды Русского радио (2004)- Год: 2004
Жанр: Pop
Продолжительность: 01:15:55
Издатель (лейбл): CDLand
Номер по каталогу: CDLR 0426 CD
Тип рипа: image+.cue
Кодек: APE
Битрейт: Lossless
Треклист:
01 - Была не была
02 - Глупые мечты
03 - Волшебный сон
04 - Слова, что ты не скажешь
05 - Лунный кот
06 - Посмотри в глаза
07 - Душа
08 - Веры звезда
09 - Письмо
10 - Магадан
11 - Шила я платье
12 - Золотые косы
13 - Дождевая вода
14 - Целуй меня
15 - Пчелы
16 - Но только не говори мне
17 - По Тверской и Неглинной

Отчёт ЕАС&#58;

Exact Audio Copy V0.99 prebeta 5 from 4. May 2009
Отчёт EAC об извлечении, выполненном 13. ноября 2010, 13:34
Наталья Ветлицкая / The Best
Дисковод: HL-DT-STDVDRAM GE20NU10   Adapter: 3  ID: 0
Режим чтения                 : Достоверность
Использование точного потока : Да
Отключение кэша аудио        : Да
Использование указателей C2  : Нет
Коррекция смещения при чтении                     : 667
Способность читать области Lead-in и Lead-out     : Нет
Заполнение пропущенных сэмплов тишиной            : Да
Удаление блоков с тишиной в начале и конце        : Нет
При вычислениях CRC использовались нулевые сэмплы : Да
Интерфейс                                         : Встроенный Win32-интерфейс для Win NT/2000
Выходной формат : Внутренние WAV-операции
Формат сэмплов  : 44.100 Гц; 16 бит; стерео
TOC извлечённого CD
     Трек |   Старт  | Длительность | Начальный сектор | Конечный сектор
    ---------------------------------------------------------------------
       1  |  0:00.00 |    3:17.55   |           0      |      14829
       2  |  3:17.55 |    4:00.52   |       14830      |      32881
       3  |  7:18.32 |    4:09.48   |       32882      |      51604
       4  | 11:28.05 |    4:11.06   |       51605      |      70435
       5  | 15:39.11 |    2:58.56   |       70436      |      83841
       6  | 18:37.67 |    3:37.21   |       83842      |     100137
       7  | 22:15.13 |    4:06.04   |      100138      |     118591
       8  | 26:21.17 |    3:41.66   |      118592      |     135232
       9  | 30:03.08 |    4:48.56   |      135233      |     156888
      10  | 34:51.64 |    3:53.37   |      156889      |     174400
      11  | 38:45.26 |    3:21.34   |      174401      |     189509
      12  | 42:06.60 |    3:31.62   |      189510      |     205396
      13  | 45:38.47 |    4:34.10   |      205397      |     225956
      14  | 50:12.57 |    4:04.34   |      225957      |     244290
      15  | 54:17.16 |    4:07.08   |      244291      |     262823
      16  | 58:24.24 |    3:44.37   |      262824      |     279660
      17  | 62:08.61 |    3:46.06   |      279661      |     296616
      18  | 68:26.67 |    4:37.59   |      308017      |     328850
Характеристики диапазона извлечения и сообщения об ошибках
Выбранный диапазон
     Имя файла C:\...\Наталья Ветлицкая - The Best.wav
     Пиковый уровень 96.6 %
     Качество диапазона 99.9 %
     CRC теста 3C177209
     CRC копии 3C177209
     Копирование... OK
Ошибок не произошло
AccurateRip: сводка
Трек  1  нет в базе данных
Трек  2  нет в базе данных
Трек  3  нет в базе данных
Трек  4  нет в базе данных
Трек  5  нет в базе данных
Трек  6  нет в базе данных
Трек  7  нет в базе данных
Трек  8  нет в базе данных
Трек  9  нет в базе данных
Трек 10  нет в базе данных
Трек 11  нет в базе данных
Трек 12  нет в базе данных
Трек 13  нет в базе данных
Трек 14  нет в базе данных
Трек 15  нет в базе данных
Трек 16  нет в базе данных
Трек 17  нет в базе данных
Ни одного трека нет в базе AccurateRip
Конец отчёта

Отчёт auCDtect Task manager&#58;

-----------------------
DON'T MODIFY THIS FILE
-----------------------
PERFORMER: auCDtect Task Manager, ver. 1.6.0 RC1 build 1.6.0.1
Copyright (c) 2008-2010 y-soft. All rights reserved
http://y-soft.org
ANALYZER: auCDtect: CD records authenticity detector, version 0.8.2
Copyright (c) 2004 Oleg Berngardt. All rights reserved.
Copyright (c) 2004 Alexander Djourik. All rights reserved.
FILE: Наталья Ветлицкая - The Best.ape
  Size: 464019952 Hash: 4C9EF61FB922699F28A4636334F40349 Accuracy: -m0
  Conclusion: CDDA 100%
  Signature: 9C199FADF3BFFCCC7808DB9DE97C134B39727D44
-
Яндекс.Метрика
Рейтинг@Mail.ru