[ Сегодня на трекере фрилич! Идет свободное скачивание без начисления Download ]

Наташа Королёва - Grand Collection (2009) [FLAC|Lossless]<Pop>

 

Создавать темы 21-Дек-2014 21:59

-Наташа Королёва - Grand Collection (2009)- Год: 2009
Жанр: Pop
Продолжительность: 01:19:57
Издатель (лейбл): Квадро Диск
Номер по каталогу: GCR276
Тип рипа: image+.cue
Кодек: FLAC
Битрейт: Lossless
Треклист:
01. Желтые тюльпаны
02. Зимние месяцы
03. Хрустальное сердце Мальвины
04. Конфетти
05. Серые глаза
06. Первый поцелуй
07. Бриллианты слез
08. Киевский мальчишка
09. Подсолнухи
10. Дельфин и Русалка
11. Голубой топаз
12. Мужичок с гармошкой
13. Палочка-выручалочка
14. Чуть-чуть не считается
15. Желтый чемоданчик
16. Когда я стану ветром
17. Синие лебеди
18. Лунная ночь
19. Поклонник
20. Никогда

Отчёт ЕАС&#58;

Exact Audio Copy V1.0 beta 3 from 29. August 2011
Отчёт EAC об извлечении, выполненном 30. декабря 2012, 17:56
Наташа Королёва / Grand Collection
Дисковод: HL-DT-STDVDRAM GH22NS70   Adapter: 3  ID: 1
Режим чтения                 : Достоверность
Использование точного потока : Да
Отключение кэша аудио        : Да
Использование указателей C2  : Нет
Коррекция смещения при чтении                     : 667
Способность читать области Lead-in и Lead-out     : Нет
Заполнение пропущенных сэмплов тишиной            : Да
Удаление блоков с тишиной в начале и конце        : Нет
При вычислениях CRC использовались нулевые сэмплы : Да
Интерфейс                                         : Установленный внешний ASPI-интерфейс
Выходной формат : Внутренние WAV-операции
Формат сэмплов  : 44.100 Гц; 16 бит; стерео
TOC извлечённого CD
     Трек |   Старт  | Длительность | Начальный сектор | Конечный сектор
    ---------------------------------------------------------------------
       1  |  0:00.00 |    4:47.56   |           0      |      21580
       2  |  4:47.56 |    4:27.16   |       21581      |      41621
       3  |  9:14.72 |    5:06.20   |       41622      |      64591
       4  | 14:21.17 |    3:10.42   |       64592      |      78883
       5  | 17:31.59 |    3:53.42   |       78884      |      96400
       6  | 21:25.26 |    4:07.44   |       96401      |     114969
       7  | 25:32.70 |    4:13.08   |      114970      |     133952
       8  | 29:46.03 |    3:29.39   |      133953      |     149666
       9  | 33:15.42 |    4:34.38   |      149667      |     170254
      10  | 37:50.05 |    3:31.07   |      170255      |     186086
      11  | 41:21.12 |    4:05.18   |      186087      |     204479
      12  | 45:26.30 |    2:52.35   |      204480      |     217414
      13  | 48:18.65 |    2:59.02   |      217415      |     230841
      14  | 51:17.67 |    3:43.63   |      230842      |     247629
      15  | 55:01.55 |    4:10.54   |      247630      |     266433
      16  | 59:12.34 |    5:22.57   |      266434      |     290640
      17  | 64:35.16 |    4:11.28   |      290641      |     309493
      18  | 68:46.44 |    4:21.39   |      309494      |     329107
      19  | 73:08.08 |    3:06.25   |      329108      |     343082
      20  | 76:14.33 |    3:43.37   |      343083      |     359844
Характеристики диапазона извлечения и сообщения об ошибках
Выбранный диапазон
     Имя файла F:\Наташа Королёва\Наташа Королёва - Grand Collection.wav
     Пиковый уровень 97.9 %
     Скорость извлечения 5.0 X
     Качество диапазона 100.0 %
     CRC теста C31F859C
     CRC копии C31F859C
     Копирование... OK
Ошибок не произошло
AccurateRip: сводка
Трек  1  отсутствует в базе данных
Трек  2  отсутствует в базе данных
Трек  3  отсутствует в базе данных
Трек  4  отсутствует в базе данных
Трек  5  отсутствует в базе данных
Трек  6  отсутствует в базе данных
Трек  7  отсутствует в базе данных
Трек  8  отсутствует в базе данных
Трек  9  отсутствует в базе данных
Трек 10  отсутствует в базе данных
Трек 11  отсутствует в базе данных
Трек 12  отсутствует в базе данных
Трек 13  отсутствует в базе данных
Трек 14  отсутствует в базе данных
Трек 15  отсутствует в базе данных
Трек 16  отсутствует в базе данных
Трек 17  отсутствует в базе данных
Трек 18  отсутствует в базе данных
Трек 19  отсутствует в базе данных
Трек 20  отсутствует в базе данных
Ни одного трека нет в базе AccurateRip
Конец отчёта

Отчёт auCDtect Task manager&#58;

-----------------------
DON'T MODIFY THIS FILE
-----------------------
PERFORMER: auCDtect Task Manager, ver. 1.6.0 RC1 build 1.6.0.1
Copyright (c) 2008-2010 y-soft. All rights reserved
http://y-soft.org
ANALYZER: auCDtect: CD records authenticity detector, version 0.8.2
Copyright (c) 2004 Oleg Berngardt. All rights reserved.
Copyright (c) 2004 Alexander Djourik. All rights reserved.
FILE: Наташа Королёва - Grand Collection.flac
  Size: 593290040 Hash: 008DC6CC22E6E98DA8E7F8ADF3871D76 Accuracy: -m0
  Conclusion: CDDA 99%
  Signature: 39843FEEF3106ED6C53C28F7D4611D5EFEE97E2E
-
Яндекс.Метрика
Рейтинг@Mail.ru