Диана - The Best (1998) [FLAC|Lossless]<Pop>

 

Создавать темы 21-Дек-2014 21:59

-Диана - The Best (1998)- Год: 1998
Жанр: Pop
Продолжительность: 01:04:14
Тип рипа: image+.cue
Кодек: FLAC
Битрейт: Lossless
Треклист:
01. Уеду с тобой
02. Расскажи
03. Скатертью дорога
04. Я больше не твоя
05. Гори, гори ясно
06. Грешная любовь
07. Незваный гость
08. Не говори
09. Я скучаю
10. Там, где ты
11. Ты уехал
12. Я тебя провожаю
13. Не целуй ее
14. Сердечко
15. Маленький дом
16. Оглянись
17. Кукла

Отчёт ЕАС&#58;

Exact Audio Copy V0.99 prebeta 4 from 23. January 2008
EAC extraction logfile from 14. July 2009, 23:16
Unknown Artist / Unknown Title
Used drive : HL-DT-STDVDRAM GSA-4167B Adapter: 1 ID: 1
Read mode : Secure
Utilize accurate stream : Yes
Defeat audio cache : Yes
Make use of C2 pointers : No
Read offset correction : 667
Overread into Lead-In and Lead-Out : No
Fill up missing offset samples with silence : Yes
Delete leading and trailing silent blocks : No
Null samples used in CRC calculations : Yes
Used interface : Native Win32 interface for Win NT & 2000
Used output format : Internal WAV Routines
Sample format : 44.100 Hz; 16 Bit; Stereo
TOC of the extracted CD
Track | Start | Length | Start sector | End sector
---------------------------------------------------------
1 | 0:00.00 | 4:00.62 | 0 | 18061
2 | 4:00.62 | 4:08.63 | 18062 | 36724
3 | 8:09.50 | 3:53.27 | 36725 | 54226
4 | 12:03.02 | 3:46.03 | 54227 | 71179
5 | 15:49.05 | 3:44.20 | 71180 | 87999
6 | 19:33.25 | 3:33.42 | 88000 | 104016
7 | 23:06.67 | 3:55.28 | 104017 | 121669
8 | 27:02.20 | 3:56.55 | 121670 | 139424
9 | 30:59.00 | 3:40.15 | 139425 | 155939
10 | 34:39.15 | 3:53.55 | 155940 | 173469
11 | 38:32.70 | 4:09.55 | 173470 | 192199
12 | 42:42.50 | 5:27.05 | 192200 | 216729
13 | 48:09.55 | 3:40.00 | 216730 | 233229
14 | 51:49.55 | 4:48.10 | 233230 | 254839
15 | 56:37.65 | 4:08.15 | 254840 | 273454
16 | 60:46.05 | 3:48.25 | 273455 | 290579
17 | 64:34.30 | 3:40.22 | 290580 | 307101
Range status and errors
Selected range
Filename E:\Lossless\Diana - The Best\Diana - The Best.wav
Peak level 97.4 %
Range quality 99.9 %
Copy CRC B7903B4B
Copy OK
No errors occurred
AccurateRip summary
Track 1 not present in database
Track 2 not present in database
Track 3 not present in database
Track 4 not present in database
Track 5 not present in database
Track 6 not present in database
Track 7 not present in database
Track 8 not present in database
Track 9 not present in database
Track 10 not present in database
Track 11 not present in database
Track 12 not present in database
Track 13 not present in database
Track 14 not present in database
Track 15 not present in database
Track 16 not present in database
Track 17 not present in database
None of the tracks are present in the AccurateRip database
End of status report

Отчёт auCDtect Task manager&#58;

-----------------------
DON'T MODIFY THIS FILE
-----------------------
PERFORMER: auCDtect Task Manager, ver. 1.6.0 RC1 build 1.6.0.1
Copyright (c) 2008-2010 y-soft. All rights reserved
http://y-soft.org
ANALYZER: auCDtect: CD records authenticity detector, version 0.8.2
Copyright (c) 2004 Oleg Berngardt. All rights reserved.
Copyright (c) 2004 Alexander Djourik. All rights reserved.
FILE: Diana - The Best.flac
  Size: 500376788 Hash: 08F331740B0D9F74A7DCD839282D1FA2 Accuracy: -m0
  Conclusion: CDDA 100%
  Signature: B25F795FF828476C4741C40ECD0E4F88B7E5A67E
-
Яндекс.Метрика
Рейтинг@Mail.ru