Уматурман - В городе N (2005) [APE|995 Кбит/с.]<Поп>

 

Создавать темы 21-Дек-2014 21:59

-Уматурман - В городе N (2005)- Год: 2005
Жанр: Поп
Продолжительность: 01:07:07
Кодек: APE
Трек лист:
Трэклист:
01 Прасковья
02 Ночной дозор
03 Раненный в висок
04 Ума Турман (Original Version)
05 Стрела
06 Ты ушла
07 Здравствуй, дорогая
08 Объясни мне
09 Ад
10 Дай
11 Тайд
12 Ни кола, ни дачки
13 Проститься
14 Ума Турман (Inka Oldstyle Remix)
15 Ума Турман ('Be Cool' Version)
16 Ты далеко
17 Главное, ребята, сердцем не стареть

Дополнительная информация&#58;

Название альбома "В городе N" было выбрано не случайно. Практически все песни, кроме "Ночного Дозора" были написаны Вовой Кристовским в Нижнем Новгороде.
Вова Кристовский: "Первоначальные версии были записаны еще в Нижнем Новгороде, а затем перезаписывались в студии компании "CD LAND" у Чубыкина, а уже окончательный mix и мастеринг, так называемые финальные штрихи, а также перезапись нескольких треков, происходят в студии известного аранжировщика Евгения Курицына. Самое трудное в записи альбома было то, что когда мы в Нижнем записывали демо запись наших песен, они были в плохом качестве, но в них было настроение… При перезаписи и пересведении песен качество улучшилось, а самое главное потерялось. Приходилось очень много менять, перезаписывать и даже в корне менять сами аранжировки песен…. Но в итоге я очень доволен тем, что получилось…."

Отчёт EAC

Exact Audio Copy V0.99 prebeta 3 from 28. July 2007
Отчёт EAC об извлечении, выполненном 6. ноября 2008, 19:48
Umaturman / В городе N Version 2.0
Дисковод: TEAC CD-W540E Adapter: 0 ID: 1
Режим чтения : Достоверность
Использование точного потока : Да
Отключение кэша аудио : Да
Использование указателей C2 : Нет
Коррекция смещения при чтении : 686
Способность читать области Lead-in и Lead-out : Да
Заполнение пропущенных сэмплов тишиной : Да
Удаление блоков с тишиной в начале и конце : Нет
При вычислениях CRC использовались нулевые сэмплы : Нет
Интерфейс : Установленный внешний ASPI-интерфейс
Выходной формат : Внутренние WAV-операции
Формат сэмплов : 44.100 Гц; 16 бит; стерео
TOC извлечённого CD
Трек | Старт | Длительность | Начальный сектор | Конечный сектор
---------------------------------------------------------------------
1 | 0:00.00 | 2:52.29 | 0 | 12928
2 | 2:52.29 | 3:45.61 | 12929 | 29864
3 | 6:38.15 | 5:00.46 | 29865 | 52410
4 | 11:38.61 | 4:09.02 | 52411 | 71087
5 | 15:47.63 | 3:28.47 | 71088 | 86734
6 | 19:16.35 | 3:33.61 | 86735 | 102770
7 | 22:50.21 | 2:55.52 | 102771 | 115947
8 | 25:45.73 | 3:45.46 | 115948 | 132868
9 | 29:31.44 | 4:30.72 | 132869 | 153190
10 | 34:02.41 | 4:02.63 | 153191 | 171403
11 | 38:05.29 | 4:06.72 | 171404 | 189925
12 | 42:12.26 | 3:46.29 | 189926 | 206904
13 | 45:58.55 | 4:59.56 | 206905 | 229385
14 | 50:58.36 | 4:26.24 | 229386 | 249359
15 | 55:24.60 | 4:08.74 | 249360 | 268033
16 | 59:33.59 | 4:13.37 | 268034 | 287045
17 | 63:47.21 | 3:20.12 | 287046 | 302057
18 | 69:39.33 | 9:42.24 | 313458 | 357131
Характеристики диапазона извлечения и сообщения об ошибках
Выбранный диапазон
Имя файла E:\Музыка\AUDIO\Уматурман\Umaturman - В городе N\Umaturman - В городе Version 2.0.wav
Пиковый уровень 98.3 %
Качество диапазона 100.0 %
CRC копии A789102B
Копирование... OK
Ошибок не произошло
Конец отчёта

Отчёт Audiochecker

Started at: пятница, 13. 03. 2009. - 13:18.59
1 file found
1 -===- C:\temp\Umaturman - В городе N\Umaturman - В городе Version 2.0.ape
Extracted successfully
Conclusion: this track is CDDA with probability 100%
Tempfile successfully deleted.
Finished at: пятница, 13. 03. 2009. - 13:19.50 (operation time: 0:00.51)
-
Яндекс.Метрика
Рейтинг@Mail.ru