[ Сегодня на трекере фрилич! Идет свободное скачивание без начисления Download ]

Давид Тухманов - Притяжение Земли. Лучшие песни 70х и 80х гг. (1997) [FLAC|Lossless]<Pop/Retro>

 

Создавать темы 21-Дек-2014 21:59

-Давид Тухманов - Притяжение Земли. Лучшие песни 70х и 80х гг. (1997)- Год: 1997
Жанр: Pop/Retro
Продолжительность: 00:57:19
Страна-производитель диска: Sweden
Год издания диска: 1997
Издатель (лейбл): L-Junction
Номер по каталогу: LJ CD 022
Тип рипа: image+.cue
Кодек: FLAC
Битрейт: Lossless
Треклист:
01. Лев Лещенко - Соловьиная роща
02. Геннадий Белов - Звездная песня неба
03. Лев Лещенко - Вечное движение
04. Владимир Макаров - Последняя электричка
05. Валерий Леонтьев - Ненаглядная сторона
06. Лев Лещенко - Притяжение Земли
07. Юрий Гуляев - Я люблю тебя, Россия
08. Валерий Ободзинский - Играет орган
09. София Ротару - Дадим шар земной детям
10. Альберт Ассадулин - Сияй Ташкент, звезда Востока
11. Вадим Мулерман - Гуцулочка
12. Николай Носков - Грибной дождь
13. София Ротару - Аист на крыше
14. Лев Лещенко - День Победы

Отчёт ЕАС&#58;

Exact Audio Copy V1.0 beta 3 from 29. August 2011
EAC extraction logfile from 14. June 2012, 5:05
Various Artists / Давид Тухманов - Притяжение Земли
Used drive  : PIONEER DVD-RW  DVR-212   Adapter: 8  ID: 0
Read mode               : Secure
Utilize accurate stream : Yes
Defeat audio cache      : Yes
Make use of C2 pointers : No
Read offset correction                      : 48
Overread into Lead-In and Lead-Out          : No
Fill up missing offset samples with silence : Yes
Delete leading and trailing silent blocks   : No
Null samples used in CRC calculations       : Yes
Used interface                              : Installed external ASPI interface
Used output format : Internal WAV Routines
Sample format      : 44.100 Hz; 16 Bit; Stereo
TOC of the extracted CD
     Track |   Start  |  Length  | Start sector | End sector
    ---------------------------------------------------------
        1  |  0:00.00 |  4:20.02 |         0    |    19501
        2  |  4:20.02 |  4:13.48 |     19502    |    38524
        3  |  8:33.50 |  2:32.20 |     38525    |    49944
        4  | 11:05.70 |  2:28.55 |     49945    |    61099
        5  | 13:34.50 |  5:04.25 |     61100    |    83924
        6  | 18:39.00 |  4:14.12 |     83925    |   102986
        7  | 22:53.12 |  3:48.03 |    102987    |   120089
        8  | 26:41.15 |  5:27.30 |    120090    |   144644
        9  | 32:08.45 |  4:29.32 |    144645    |   164851
       10  | 36:38.02 |  3:51.03 |    164852    |   182179
       11  | 40:29.05 |  4:15.32 |    182180    |   201336
       12  | 44:44.37 |  5:32.15 |    201337    |   226251
       13  | 50:16.52 |  3:21.38 |    226252    |   241364
       14  | 53:38.15 |  3:40.60 |    241365    |   257924
Range status and errors
Selected range
     Filename M:\FLAC (bruk67)\MP3\Давид Тухманов - Притяжение Земли (1997) FLAC\Various Artists - Давид Тухманов - Притяжение Земли.wav
     Peak level 94.9 %
     Extraction speed 7.1 X
     Range quality 100.0 %
     Test CRC 1245C0BF
     Copy CRC 1245C0BF
     Copy OK
No errors occurred
AccurateRip summary
Track  1  not present in database
Track  2  not present in database
Track  3  not present in database
Track  4  not present in database
Track  5  not present in database
Track  6  not present in database
Track  7  not present in database
Track  8  not present in database
Track  9  not present in database
Track 10  not present in database
Track 11  not present in database
Track 12  not present in database
Track 13  not present in database
Track 14  not present in database
None of the tracks are present in the AccurateRip database
End of status report
---- CUETools DB Plugin V2.1.3
[CTDB TOCID: amX.EjS2psMUqeFqcDfRSP0qCs8-] disk not present in database, Submit result: amX.EjS2psMUqeFqcDfRSP0qCs8- has been uploaded
==== Log checksum 1591B9809DD92D0BD13D5E0612A31A00A47DB9386C6D528684C8A32ABAEF79CF ====

Отчёт auCDtect Task manager&#58;

-----------------------
DON'T MODIFY THIS FILE
-----------------------
PERFORMER: auCDtect Task Manager, ver. 1.6.0 RC1 build 1.6.0.1
Copyright (c) 2008-2010 y-soft. All rights reserved
http://y-soft.org
ANALYZER: auCDtect: CD records authenticity detector, version 0.8.2
Copyright (c) 2004 Oleg Berngardt. All rights reserved.
Copyright (c) 2004 Alexander Djourik. All rights reserved.
FILE: Various Artists - Давид Тухманов - Притяжение Земли.flac
  Size: 316531603 Hash: D3473AF91F7E6226113089917788029D Accuracy: -m0
  Conclusion: CDDA 100%
  Signature: 20A7290E28F455EB7C9AD7C317FCE1716BBA5DE3
-
Яндекс.Метрика
Рейтинг@Mail.ru