Жанна Агузарова - Лучшие песни (1998) [APE|Lossless]<Pop>

 

Создавать темы 21-Дек-2014 21:59

-Жанна Агузарова - Лучшие песни (1998)- Год: 1998
Жанр: Pop
Продолжительность: 01:13:47
Производитель диска: Швеция, г.Стокгольм
Тип рипа: image+.cue
Кодек: APE
Битрейт: Lossless
Треклист:
01 - Ты, только ты
02 - Черный кот
03 - Чудесная страна
04 - Неудачники
05 - Открытие
06 - Кошки
07 - Ленинградский рок-н-ролл
08 - Будь со мной
09 - Мне хорошо рядом с тобой
10 - Вернись ко мне
11 - Орел
12 - Марина
13 - Звезда
14 - Зимушка
15 - Незабудка
16 - Прикосновение к Есенину
17 - Индустрия
18 - Один поцелуй моряка
19 - Луч
20 - Проблемы
21 - В городе моем

Отчёт ЕАС&#58;

Exact Audio Copy V0.99 prebeta 4 from 23. January 2008
Отчёт EAC об извлечении, выполненном 1. июня 2009, 0:46
Жанна Агузарова / Лучшие песни
Дисковод: LITE-ON DVDRW LH-18A1H Adapter: 0 ID: 0
Режим чтения : Достоверность
Использование точного потока : Да
Отключение кэша аудио : Да
Использование указателей C2 : Нет
Коррекция смещения при чтении : 6
Способность читать области Lead-in и Lead-out : Нет
Заполнение пропущенных сэмплов тишиной : Да
Удаление блоков с тишиной в начале и конце : Нет
При вычислениях CRC использовались нулевые сэмплы : Да
Интерфейс : Встроенный Win32-интерфейс для Win NT/2000
Выходной формат : Внутренние WAV-операции
Формат сэмплов : 44.100 Гц; 16 бит; стерео
TOC извлечённого CD
Трек | Старт | Длительность | Начальный сектор | Конечный сектор
---------------------------------------------------------------------
1 | 0:00.00 | 3:49.50 | 0 | 17224
2 | 3:49.50 | 2:52.53 | 17225 | 30177
3 | 6:42.28 | 2:56.35 | 30178 | 43412
4 | 9:38.63 | 3:43.50 | 43413 | 60187
5 | 13:22.38 | 1:48.17 | 60188 | 68304
6 | 15:10.55 | 2:47.29 | 68305 | 80858
7 | 17:58.09 | 2:18.05 | 80859 | 91213
8 | 20:16.14 | 2:47.66 | 91214 | 103804
9 | 23:04.05 | 5:43.71 | 103805 | 129600
10 | 28:48.01 | 4:11.60 | 129601 | 148485
11 | 32:59.61 | 2:57.58 | 148486 | 161818
12 | 35:57.44 | 4:25.73 | 161819 | 181766
13 | 40:23.42 | 3:17.74 | 181767 | 196615
14 | 43:41.41 | 3:12.72 | 196616 | 211087
15 | 46:54.38 | 3:46.14 | 211088 | 228051
16 | 50:40.52 | 3:30.34 | 228052 | 243835
17 | 54:11.11 | 3:23.74 | 243836 | 259134
18 | 57:35.10 | 4:23.47 | 259135 | 278906
19 | 61:58.57 | 3:39.09 | 278907 | 295340
20 | 65:37.66 | 3:59.45 | 295341 | 313310
21 | 69:37.36 | 4:09.37 | 313311 | 332022
Характеристики диапазона извлечения и сообщения об ошибках
Выбранный диапазон
Имя файла F:\TEMP\!МОИ РАЗДАЧИ!\Жанна Агузарова\Жанна Агузарова - Лучшие песни.wav
Пиковый уровень 100.0 %
Качество диапазона 99.9 %
CRC копии 3ABE9BE9
Копирование... OK
Ошибок не произошло
Конец отчёта

Отчёт auCDtect Task manager&#58;

-----------------------
DON'T MODIFY THIS FILE
-----------------------
PERFORMER: auCDtect Task Manager, ver. 1.6.0 RC1 build 1.6.0.1
Copyright (c) 2008-2010 y-soft. All rights reserved
http://y-soft.org
ANALYZER: auCDtect: CD records authenticity detector, version 0.8.2
Copyright (c) 2004 Oleg Berngardt. All rights reserved.
Copyright (c) 2004 Alexander Djourik. All rights reserved.
FILE: Жанна Агузарова - Лучшие песни.ape
  Size: 470075132 Hash: 4883A9C741F5697B3114F9CF2DA9394A Accuracy: -m0
  Conclusion: CDDA 100%
  Signature: 920497ED30FA13D69CA384774BA0BA96987771C4
-
Яндекс.Метрика
Рейтинг@Mail.ru