Сергей Беликов - Greatest Hits 1974-1994 (1994) [FLAC|Lossless]<Pop / Rock>

 

Создавать темы 21-Дек-2014 21:59

-Сергей Беликов - Greatest Hits 1974-1994 (1994)- Год: 1994
Жанр: Pop / Rock
Продолжительность: 01:03:35
Тип рипа: image+.cue
Кодек: FLAC
Битрейт: Lossless
Треклист:
01.Будь За Меня Спокоен (1990)
02.У Беды Глаза Зелёные (1979)
03.Радуга (1980)
04.Сентиментальная Прогулка (1975)
05.Ночная Гостья (1994)
06.Снится Мне Деревня (1986)
07.Моя Гитара
08.Удивлённый Человек (1986)
09.Ноктюрн (1980)
10.Время Уходит (1992)
11.Живи, Родник (1985)
12.Каторга (1992)
13.Ласковые Руки (1992)
14.Не Могу Забыть (1990)
15.Удивительные Кони (1990)
16.Что Ж Ты Меня Не Доглядела (1994)
17.Кончается Шампанское (1992)

Отчёт ЕАС&#58;

Exact Audio Copy V0.99 prebeta 5 from 4. May 2009
Отчёт EAC об извлечении, выполненном 16. апреля 2010, 20:20
Сергей Беликов / Greatest Hits. 1974-1994
Дисковод: HL-DT-STDVDRAM GH20NS15   Adapter: 2  ID: 0
Режим чтения                 : Достоверность
Использование точного потока : Да
Отключение кэша аудио        : Да
Использование указателей C2  : Нет
Коррекция смещения при чтении                     : 667
Способность читать области Lead-in и Lead-out     : Нет
Заполнение пропущенных сэмплов тишиной            : Да
Удаление блоков с тишиной в начале и конце        : Нет
При вычислениях CRC использовались нулевые сэмплы : Да
Интерфейс                                         : Встроенный Win32-интерфейс для Win NT/2000
Выходной формат : Внутренние WAV-операции
Формат сэмплов  : 44.100 Гц; 16 бит; стерео
TOC извлечённого CD
     Трек |   Старт  | Длительность | Начальный сектор | Конечный сектор
    ---------------------------------------------------------------------
       1  |  0:00.32 |    4:08.35   |          32      |      18666
       2  |  4:08.67 |    3:01.00   |       18667      |      32241
       3  |  7:09.67 |    3:43.60   |       32242      |      49026
       4  | 10:53.52 |    4:04.33   |       49027      |      67359
       5  | 14:58.10 |    3:40.10   |       67360      |      83869
       6  | 18:38.20 |    3:18.25   |       83870      |      98744
       7  | 21:56.45 |    4:51.70   |       98745      |     120639
       8  | 26:48.40 |    3:34.52   |      120640      |     136741
       9  | 30:23.17 |    4:24.40   |      136742      |     156581
      10  | 34:47.57 |    3:50.00   |      156582      |     173831
      11  | 38:37.57 |    3:05.35   |      173832      |     187741
      12  | 41:43.17 |    3:13.68   |      187742      |     202284
      13  | 44:57.10 |    4:36.57   |      202285      |     223041
      14  | 49:33.67 |    2:41.55   |      223042      |     235171
      15  | 52:15.47 |    3:54.10   |      235172      |     252731
      16  | 56:09.57 |    4:08.03   |      252732      |     271334
      17  | 60:17.60 |    3:17.60   |      271335      |     286169
Характеристики диапазона извлечения и сообщения об ошибках
Выбранный диапазон
     Имя файла D:\Новая папка\Сергей Беликов - Greatest Hits 1974-1994\Сергей Беликов - Greatest Hits. 1974-1994.wav
     Пиковый уровень 96.8 %
     Качество диапазона 100.0 %
     CRC копии 1791FFD6
     Копирование... OK
Ошибок не произошло
Конец отчёта

Отчёт auCDtect Task manager&#58;

-----------------------
DON'T MODIFY THIS FILE
-----------------------
PERFORMER: auCDtect Task Manager, ver. 1.6.0 RC1 build 1.6.0.1
Copyright (c) 2008-2010 y-soft. All rights reserved
http://y-soft.org
ANALYZER: auCDtect: CD records authenticity detector, version 0.8.2
Copyright (c) 2004 Oleg Berngardt. All rights reserved.
Copyright (c) 2004 Alexander Djourik. All rights reserved.
FILE: Сергей Беликов - Greatest Hits. 1974-1994.flac
  Size: 437858709 Hash: 9DDCDEF11602426BAA90883D638E9AAC Accuracy: -m0
  Conclusion: CDDA 100%
  Signature: D1833300D79115BB14A848366624EBF39C860416
-
Яндекс.Метрика
Рейтинг@Mail.ru