[ Сегодня на трекере фрилич! Идет свободное скачивание без начисления Download ]

Юра Шатунов - Золотой альбом (2002) [APE|Lossless]<Pop>

 

Создавать темы 21-Дек-2014 21:59

-Юра Шатунов - Золотой альбом (2002)- Год: 2002
Жанр: Pop
Продолжительность: 01:08:26
Тип рипа: image+.cue
Кодек: APE
Битрейт: Lossless
Треклист:
01. Звездная ночь
02. Детство
03. Лето
04. Ты просто был
05. Седая ночь
06. Розовый вечер
07. Ну что же ты
08. И упав на колени
09. Взрослые
10. А я
11. Бездомный пес
12. Я не хочу
13. Белые розы (Dance-remix 2002)
14. Художник (Dance-remix 2002)

Отчёт ЕАС&#58;

Exact Audio Copy V0.99 prebeta 4 from 23. January 2008
Отчёт EAC об извлечении, выполненном 15. ноября 2008, 22:45
Юра Шатунов / Золотой альбом
Дисковод: _NEC DVD_RW ND-4550A Adapter: 0 ID: 0
Режим чтения : Достоверность
Использование точного потока : Да
Отключение кэша аудио : Да
Использование указателей C2 : Нет
Коррекция смещения при чтении : 48
Способность читать области Lead-in и Lead-out : Нет
Заполнение пропущенных сэмплов тишиной : Да
Удаление блоков с тишиной в начале и конце : Нет
При вычислениях CRC использовались нулевые сэмплы : Да
Интерфейс : Встроенный Win32-интерфейс для Win NT/2000
Выходной формат : Внутренние WAV-операции
Формат сэмплов : 44.100 Гц; 16 бит; стерео
TOC извлечённого CD
Трек | Старт | Длительность | Начальный сектор | Конечный сектор
---------------------------------------------------------------------
1 | 0:00.00 | 4:13.08 | 0 | 18982
2 | 4:13.08 | 4:12.63 | 18983 | 37945
3 | 8:25.71 | 3:26.70 | 37946 | 53465
4 | 11:52.66 | 6:41.60 | 53466 | 83600
5 | 18:34.51 | 6:58.68 | 83601 | 115018
6 | 25:33.44 | 4:05.43 | 115019 | 133436
7 | 29:39.12 | 4:48.67 | 133437 | 155103
8 | 34:28.04 | 4:13.11 | 155104 | 174089
9 | 38:41.15 | 6:03.17 | 174090 | 201331
10 | 44:44.32 | 4:46.21 | 201332 | 222802
11 | 49:30.53 | 5:11.33 | 222803 | 246160
12 | 54:42.11 | 5:20.16 | 246161 | 270176
13 | 60:02.27 | 5:03.29 | 270177 | 292930
14 | 65:05.56 | 3:19.74 | 292931 | 307929
Характеристики диапазона извлечения и сообщения об ошибках
Выбранный диапазон
Имя файла E:\Новый рип\Юра Шатунов - Золотой альбом.wav
Пиковый уровень 98.8 %
Качество диапазона 99.9 %
CRC копии 7187BDB6
Копирование... OK
Ошибок не произошло
Конец отчёта

Отчёт auCDtect Task manager&#58;

-----------------------
DON'T MODIFY THIS FILE
-----------------------
PERFORMER: auCDtect Task Manager, ver. 1.6.0 RC1 build 1.6.0.1
Copyright (c) 2008-2010 y-soft. All rights reserved
http://y-soft.org
ANALYZER: auCDtect: CD records authenticity detector, version 0.8.2
Copyright (c) 2004 Oleg Berngardt. All rights reserved.
Copyright (c) 2004 Alexander Djourik. All rights reserved.
FILE: Юра Шатунов - Золотой альбом.ape
  Size: 490012452 Hash: 99003182C18F8B9A0B0EE125169448E8 Accuracy: -m0
  Conclusion: CDDA 99%
  Signature: BE29869BA932A8A8014AD5C46E7414A7136D4FD1
-
Яндекс.Метрика
Рейтинг@Mail.ru