Натали - De Luxe Collection (2004) [FLAC|Lossless]<Pop>

 

Создавать темы 21-Дек-2014 21:59

-Натали - De Luxe Collection (2004)- Год: 2004
Жанр: Pop
Продолжительность: 01:17:38
Тип рипа: image+.cue
Кодек: FLAC
Битрейт: Lossless
Треклист:
01.Ветер с моря дул...
02.Первая любовь
03.Считалочка
04.Не стерпелось,не слюбилось
05.Посвящение друзьям
06.Как жаль
07.Лодочка
08.Весна
09.Улыбочка
10.Провинциальная девчонка
11.Облака (Пишите письма)
12.Он с моря дул
13.Отбой
14.Черепашка
15.4 стены
16.Я повторю
17.Радужный мир
18.У костра
19.Новогодние игрушки
20.Птицы белые мои
21.Табор уходит в небо

Отчёт ЕАС&#58;

Exact Audio Copy V0.99 prebeta 5 from 4. May 2009
Отчёт EAC об извлечении, выполненном 3. декабря 2010, 22:59
Натали / De Luxe Collection
Дисковод: PIONEER DVD-RW  DVR-111D   Adapter: 5  ID: 3
Режим чтения                 : Достоверность
Использование точного потока : Да
Отключение кэша аудио        : Да
Использование указателей C2  : Нет
Коррекция смещения при чтении                     : 48
Способность читать области Lead-in и Lead-out     : Нет
Заполнение пропущенных сэмплов тишиной            : Да
Удаление блоков с тишиной в начале и конце        : Нет
При вычислениях CRC использовались нулевые сэмплы : Да
Интерфейс                                         : Встроенный Win32-интерфейс для Win NT/2000
Выходной формат : Внутренние WAV-операции
Формат сэмплов  : 44.100 Гц; 16 бит; стерео
TOC извлечённого CD
     Трек |   Старт  | Длительность | Начальный сектор | Конечный сектор
    ---------------------------------------------------------------------
       1  |  0:00.00 |    3:45.33   |           0      |      16907
       2  |  3:45.33 |    4:01.20   |       16908      |      35002
       3  |  7:46.53 |    3:29.02   |       35003      |      50679
       4  | 11:15.55 |    4:16.29   |       50680      |      69908
       5  | 15:32.09 |    3:38.14   |       69909      |      86272
       6  | 19:10.23 |    3:40.64   |       86273      |     102836
       7  | 22:51.12 |    3:10.60   |      102837      |     117146
       8  | 26:01.72 |    3:25.43   |      117147      |     132564
       9  | 29:27.40 |    3:53.60   |      132565      |     150099
      10  | 33:21.25 |    3:31.33   |      150100      |     165957
      11  | 36:52.58 |    3:19.63   |      165958      |     180945
      12  | 40:12.46 |    3:20.34   |      180946      |     195979
      13  | 43:33.05 |    3:19.69   |      195980      |     210973
      14  | 46:52.74 |    3:50.55   |      210974      |     228278
      15  | 50:43.54 |    3:28.24   |      228279      |     243902
      16  | 54:12.03 |    3:24.38   |      243903      |     259240
      17  | 57:36.41 |    3:36.10   |      259241      |     275450
      18  | 61:12.51 |    3:55.48   |      275451      |     293123
      19  | 65:08.24 |    3:46.36   |      293124      |     310109
      20  | 68:54.60 |    4:49.37   |      310110      |     331821
      21  | 73:44.22 |    3:53.61   |      331822      |     349357
Характеристики диапазона извлечения и сообщения об ошибках
Выбранный диапазон
     Имя файла S:\Натали\Натали - De Luxe Collection.wav
     Пиковый уровень 98.8 %
     Качество диапазона 100.0 %
     CRC теста A9464FDC
     CRC копии A9464FDC
     Копирование... OK
Ошибок не произошло
Конец отчёта

Отчёт auCDtect Task manager&#58;

-----------------------
DON'T MODIFY THIS FILE
-----------------------
PERFORMER: auCDtect Task Manager, ver. 1.6.0 RC1 build 1.6.0.1
Copyright (c) 2008-2010 y-soft. All rights reserved
http://y-soft.org
ANALYZER: auCDtect: CD records authenticity detector, version 0.8.2
Copyright (c) 2004 Oleg Berngardt. All rights reserved.
Copyright (c) 2004 Alexander Djourik. All rights reserved.
FILE: Натали - De Luxe Collection.flac
  Size: 558510668 Hash: 42DEBA901750D4CFDFEC1F94DACB4EA0 Accuracy: -m0
  Conclusion: CDDA 100%
  Signature: FD3383B0626CFF3891846451681B4E43B8D52AAA
-
Яндекс.Метрика
Рейтинг@Mail.ru