Алиса Мон - Мои любимые песни (2005) [FLAC|Lossless]<Pop>

 

Создавать темы 21-Дек-2014 21:59

-Алиса Мон - Мои любимые песни (2005)- Год: 2005
Жанр: Pop
Продолжительность: 00:46:06
Тип рипа: image+.cue
Кодек: FLAC
Битрейт: Lossless
Треклист:
01. Обещаю
02. Стань моим
03. Алмаз
04. Долюби
05. День вдвоем
06. Мокрый Март
07. Бабочка
08. Синий дирижабль
09. Ты
10. Он и она
11. Паровозик любви
12. Подорожник

Отчёт ЕАС&#58;

Exact Audio Copy V0.99 prebeta 5 from 4. May 2009
EAC extraction logfile from 23. August 2010, 8:43
Алиса Мон / Мои любимые песни
Used drive  : TSSTcorpCDDVDW SH-S202J   Adapter: 0  ID: 0
Read mode               : Secure
Utilize accurate stream : Yes
Defeat audio cache      : Yes
Make use of C2 pointers : No
Read offset correction                      : 6
Overread into Lead-In and Lead-Out          : No
Fill up missing offset samples with silence : Yes
Delete leading and trailing silent blocks   : No
Null samples used in CRC calculations       : Yes
Used interface                              : Native Win32 interface for Win NT & 2000
Used output format              : User Defined Encoder
Selected bitrate                : 1024 kBit/s
Quality                         : High
Add ID3 tag                     : No
Command line compressor         : C:\Program Files\Exact Audio Copy\Flac\flac.exe
Additional command line options : -8 -V %s
TOC of the extracted CD
     Track |   Start  |  Length  | Start sector | End sector
    ---------------------------------------------------------
        1  |  0:00.00 |  3:34.14 |         0    |    16063
        2  |  3:34.14 |  4:07.33 |     16064    |    34621
        3  |  7:41.47 |  3:37.34 |     34622    |    50930
        4  | 11:19.06 |  3:39.68 |     50931    |    67423
        5  | 14:58.74 |  3:50.44 |     67424    |    84717
        6  | 18:49.43 |  3:42.04 |     84718    |   101371
        7  | 22:31.47 |  4:32.40 |    101372    |   121811
        8  | 27:04.12 |  3:40.68 |    121812    |   138379
        9  | 30:45.05 |  4:01.51 |    138380    |   156505
       10  | 34:46.56 |  3:42.25 |    156506    |   173180
       11  | 38:29.06 |  3:53.05 |    173181    |   190660
       12  | 42:22.11 |  3:44.41 |    190661    |   207501
Range status and errors
Selected range
     Filename C:\Алиса Мон - Мои любимые песни.wav
     Peak level 100.0 %
     Range quality 100.0 %
     Test CRC CB3B919D
     Copy CRC CB3B919D
     Copy OK
No errors occurred
AccurateRip summary
Track  1  not present in database
Track  2  not present in database
Track  3  not present in database
Track  4  not present in database
Track  5  not present in database
Track  6  not present in database
Track  7  not present in database
Track  8  not present in database
Track  9  not present in database
Track 10  not present in database
Track 11  not present in database
Track 12  not present in database
None of the tracks are present in the AccurateRip database
End of status report

Отчёт auCDtect Task manager&#58;

-----------------------
DON'T MODIFY THIS FILE
-----------------------
PERFORMER: auCDtect Task Manager, ver. 1.6.0 RC1 build 1.6.0.1
Copyright (c) 2008-2010 y-soft. All rights reserved
http://y-soft.org
ANALYZER: auCDtect: CD records authenticity detector, version 0.8.2
Copyright (c) 2004 Oleg Berngardt. All rights reserved.
Copyright (c) 2004 Alexander Djourik. All rights reserved.
FILE: Алиса Мон - Мои любимые песни.flac
  Size: 341306665 Hash: EE7EE10F7FD5719CE758C235849B635F Accuracy: -m0
  Conclusion: MPEG 95%
  Signature: 4A31ACF57D8E58B412C026E1CE4493C6743E3B58
-
Яндекс.Метрика
Рейтинг@Mail.ru