Александр Шевченко - Будет Все, Как Ты Захочешь (2010) [FLAC|Lossless]<Pop>

 

Создавать темы 21-Дек-2014 21:59

-Александр Шевченко - Будет Все, Как Ты Захочешь (2010)- Год: 2010
Жанр: Pop
Продолжительность: 01:02:22
Тип рипа: image+.cue
Кодек: FLAC
Битрейт: Lossless
Треклист:
01. - Будет Все, Как Ты Захочешь
02. - Ей Одной
03. - Падаю В Любовь
04. - Моя Ученица
05. - Крылья
06. - Снежинка
07. - Первые Уроки Любви
08. - Кто Знает
09. - История
10. - Если Ты Скажешь
11. - Мечтатель
12. - Это Было
13. - Только О Тебе
14. - Скажи Мне Слово

Отчёт ЕАС&#58;

Exact Audio Copy V0.99 prebeta 5 from 4. May 2009
Отчёт EAC об извлечении, выполненном 20. марта 2010, 8:41
Александр Шевченко / Будет Все, Как Ты Захочешь
Дисковод: TSSTcorpCDDVDW SH-S223Q   Adapter: 3  ID: 0
Режим чтения                 : Достоверность
Использование точного потока : Да
Отключение кэша аудио        : Да
Использование указателей C2  : Нет
Коррекция смещения при чтении                     : 6
Способность читать области Lead-in и Lead-out     : Нет
Заполнение пропущенных сэмплов тишиной            : Да
Удаление блоков с тишиной в начале и конце        : Нет
При вычислениях CRC использовались нулевые сэмплы : Да
Интерфейс                                         : Установленный внешний ASPI-интерфейс
Выходной формат          : Пользовательский кодировщик
Выбранный битрейт        : 768 kBit/s
Качество                 : Высокий
Добавление ID3-тэга      : Нет
Утилита сжатия           : C:\Program Files\Exact Audio Copy\FLAC\FLAC.EXE
Дополнительные параметры : -6 -V -T "ARTIST=%a" -T "TITLE=%t" -T "ALBUM=%g" -T "DATE=%y" -T "TRACKNUMBER=%n" -T "GENRE=%m" -T "COMMENT=%e" %s -o %d
TOC извлечённого CD
     Трек |   Старт  | Длительность | Начальный сектор | Конечный сектор
    ---------------------------------------------------------------------
       1  |  0:00.00 |    5:03.27   |           0      |      22751
       2  |  5:03.27 |    4:23.13   |       22752      |      42489
       3  |  9:26.40 |    5:28.70   |       42490      |      67159
       4  | 14:55.35 |    3:28.12   |       67160      |      82771
       5  | 18:23.47 |    4:33.40   |       82772      |     103286
       6  | 22:57.12 |    4:01.03   |      103287      |     121364
       7  | 26:58.15 |    4:51.15   |      121365      |     143204
       8  | 31:49.30 |    4:23.67   |      143205      |     162996
       9  | 36:13.22 |    3:42.10   |      162997      |     179656
      10  | 39:55.32 |    5:37.38   |      179657      |     204969
      11  | 45:32.70 |    4:28.05   |      204970      |     225074
      12  | 50:01.00 |    4:27.60   |      225075      |     245159
      13  | 54:28.60 |    4:05.22   |      245160      |     263556
      14  | 58:34.07 |    3:48.55   |      263557      |     280711
Характеристики диапазона извлечения и сообщения об ошибках
Выбранный диапазон
     Имя файла D:\ЕАС\Александр Шевченко - Будет Все, Как Ты Захочешь (2010 Квадро Диск) (Loosles)\Александр Шевченко - Будет Все, Как Ты Захочешь.wav
     Пиковый уровень 97.7 %
     Качество диапазона 100.0 %
     CRC теста 6AE973C4
     CRC копии 6AE973C4
     Копирование... OK
Ошибок не произошло
AccurateRip: сводка
Трек  1  нет в базе данных
Трек  2  нет в базе данных
Трек  3  нет в базе данных
Трек  4  нет в базе данных
Трек  5  нет в базе данных
Трек  6  нет в базе данных
Трек  7  нет в базе данных
Трек  8  нет в базе данных
Трек  9  нет в базе данных
Трек 10  нет в базе данных
Трек 11  нет в базе данных
Трек 12  нет в базе данных
Трек 13  нет в базе данных
Трек 14  нет в базе данных
Ни одного трека нет в базе AccurateRip
Конец отчёта

Отчёт auCDtect Task manager&#58;

-----------------------
DON'T MODIFY THIS FILE
-----------------------
PERFORMER: auCDtect Task Manager, ver. 1.6.0 RC1 build 1.6.0.1
Copyright (c) 2008-2010 y-soft. All rights reserved
http://y-soft.org
ANALYZER: auCDtect: CD records authenticity detector, version 0.8.2
Copyright (c) 2004 Oleg Berngardt. All rights reserved.
Copyright (c) 2004 Alexander Djourik. All rights reserved.
FILE: Александр Шевченко - Будет Все, Как Ты Захочешь.flac
  Size: 429826486 Hash: A153168D9C08C8258682860D44E4E67D Accuracy: -m0
  Conclusion: CDDA 100%
  Signature: 3DDE3BD1613D53AA52921C14F1BFD90A132D2701
-
Рейтинг@Mail.ru