[ Сегодня на трекере фрилич! Идет свободное скачивание без начисления Download ]

Нэнси - Звездная серия (2000) [FLAC|Lossless]<Pop>

 

Создавать темы 21-Дек-2014 21:59

-Нэнси - Звездная серия (2000)- Год: 2000
Жанр: Pop
Продолжительность: 01:13:23
Издатель (лейбл): Star Records
Номер по каталогу: ZS-103-00
Страна: Россия
Тип рипа: image+.cue
Кодек: FLAC
Битрейт: Lossless
Треклист:
01.Дым сигарет с ментолом
02.Фотография
03.Алёнка
04.Не уходи
05.Игрушка
06.Мама
07.Африка
08.На коленях
09.Букет
10.Ты далеко
11.Туман, туман
12.Стюардесса
13.Не опоздай
14.Хрустальная любовь
15.Зимородок
16.Ручной пулемёт
17.Чёрный кадиллак

Отчёт ЕАС&#58;

Exact Audio Copy V1.0 beta 1 from 15. November 2010
Отчёт EAC об извлечении, выполненном 23. мая 2011, 20:59
Нэнси / Звездная серия
Дисковод: Optiarc DVD RW AD-5170A   Adapter: 0  ID: 1
Режим чтения                 : Достоверность
Использование точного потока : Да
Отключение кэша аудио        : Да
Использование указателей C2  : Нет
Коррекция смещения при чтении                     : 48
Способность читать области Lead-in и Lead-out     : Нет
Заполнение пропущенных сэмплов тишиной            : Да
Удаление блоков с тишиной в начале и конце        : Нет
При вычислениях CRC использовались нулевые сэмплы : Да
Интерфейс                                         : Установленный внешний ASPI-интерфейс
Выходной формат : Внутренние WAV-операции
Формат сэмплов  : 44.100 Гц; 16 бит; стерео
TOC извлечённого CD
     Трек |   Старт  | Длительность | Начальный сектор | Конечный сектор
    ---------------------------------------------------------------------
       1  |  0:00.00 |    4:44.15   |           0      |      21314
       2  |  4:44.15 |    4:44.63   |       21315      |      42677
       3  |  9:29.03 |    3:15.63   |       42678      |      57365
       4  | 12:44.66 |    3:44.56   |       57366      |      74221
       5  | 16:29.47 |    3:50.40   |       74222      |      91511
       6  | 20:20.12 |    3:49.45   |       91512      |     108731
       7  | 24:09.57 |    4:47.43   |      108732      |     130299
       8  | 28:57.25 |    3:59.68   |      130300      |     148292
       9  | 32:57.18 |    4:24.34   |      148293      |     168126
      10  | 37:21.52 |    4:19.00   |      168127      |     187551
      11  | 41:40.52 |    4:42.55   |      187552      |     208756
      12  | 46:23.32 |    4:46.33   |      208757      |     230239
      13  | 51:09.65 |    4:11.11   |      230240      |     249075
      14  | 55:21.01 |    3:37.04   |      249076      |     265354
      15  | 58:58.05 |    4:12.44   |      265355      |     284298
      16  | 63:10.49 |    4:36.17   |      284299      |     305015
      17  | 67:46.66 |    5:36.36   |      305016      |     330251
Характеристики диапазона извлечения и сообщения об ошибках
Выбранный диапазон
     Имя файла C:\nansy\Нэнси - Звездная серия.wav
     Пиковый уровень 100.0 %
     Скорость извлечения 0.4 X
     Качество диапазона 100.0 %
     CRC теста 58D67F46
     CRC копии 58D67F46
     Копирование... OK
Ошибок не произошло
AccurateRip: сводка
Трек  1  отсутствует в базе данных
Трек  2  отсутствует в базе данных
Трек  3  отсутствует в базе данных
Трек  4  отсутствует в базе данных
Трек  5  отсутствует в базе данных
Трек  6  отсутствует в базе данных
Трек  7  отсутствует в базе данных
Трек  8  отсутствует в базе данных
Трек  9  отсутствует в базе данных
Трек 10  отсутствует в базе данных
Трек 11  отсутствует в базе данных
Трек 12  отсутствует в базе данных
Трек 13  отсутствует в базе данных
Трек 14  отсутствует в базе данных
Трек 15  отсутствует в базе данных
Трек 16  отсутствует в базе данных
Трек 17  отсутствует в базе данных
Ни одного трека нет в базе AccurateRip
Конец отчёта
==== Контрольная сумма отчёта 9F0347B37DA4AFC94D08FE42EFDE08966FCB1BD65467449A709AA2AD85974915 ====

Отчёт auCDtect Task manager&#58;

-----------------------
DON'T MODIFY THIS FILE
-----------------------
PERFORMER: auCDtect Task Manager, ver. 1.6.0 RC1 build 1.6.0.1
Copyright (c) 2008-2010 y-soft. All rights reserved
http://y-soft.org
ANALYZER: auCDtect: CD records authenticity detector, version 0.8.2
Copyright (c) 2004 Oleg Berngardt. All rights reserved.
Copyright (c) 2004 Alexander Djourik. All rights reserved.
FILE: Нэнси - Звездная серия.flac
  Size: 531627485 Hash: 7569E0C91AABBAB8AD1D0DAB1D3BA4C2 Accuracy: -m0
  Conclusion: CDDA 100%
  Signature: 7444DAA92BC3986A9695130BC036D32C81CB4A7E
-
Яндекс.Метрика
Рейтинг@Mail.ru