[ Сегодня на трекере фрилич! Идет свободное скачивание без начисления Download ]

Сергей Пенкин - Счастье близко (2013) [FLAC|Lossless]<Pop>

 

Создавать темы 21-Дек-2014 21:59

-Сергей Пенкин - Счастье близко (2013)- Год: 2013
Жанр: Pop
Продолжительность: 00:38:37
Издатель (лейбл): КВАДРО-ДИСК
Номер по каталогу: KTL 13-042
Тип рипа: image+.cue
Кодек: FLAC
Битрейт: Lossless
Треклист:
01. Счастье близко (3:54)
02. Не спеши терять (3:58)
03. В другую весну (4:31)
04. Только ты (3:28)
05. Ангел (2:58)
06. Иногда (3:41)
07. Позови (3:45)
08. Не забывай (4:22)
09. Толкни меня ввысь (3:54)
10. Где-то (4:06)

Отчёт ЕАС&#58;

Exact Audio Copy V1.0 beta 3 from 29. August 2011
Отчёт EAC об извлечении, выполненном 21. апреля 2013, 18:10
Сергей Пенкин / Счастье близко
Дисковод: ASUS    DRW-1814BLT   Adapter: 1  ID: 1
Режим чтения                 : Достоверность
Использование точного потока : Да
Отключение кэша аудио        : Да
Использование указателей C2  : Нет
Коррекция смещения при чтении                     : 6
Способность читать области Lead-in и Lead-out     : Нет
Заполнение пропущенных сэмплов тишиной            : Да
Удаление блоков с тишиной в начале и конце        : Нет
При вычислениях CRC использовались нулевые сэмплы : Да
Интерфейс                                         : Встроенный Win32-интерфейс для Win NT/2000
Выходной формат : Внутренние WAV-операции
Формат сэмплов  : 44.100 Гц; 16 бит; стерео
TOC извлечённого CD
     Трек |   Старт  | Длительность | Начальный сектор | Конечный сектор
    ---------------------------------------------------------------------
       1  |  0:00.00 |    3:53.54   |           0      |      17528
       2  |  3:53.54 |    3:58.17   |       17529      |      35395
       3  |  7:51.71 |    4:30.65   |       35396      |      55710
       4  | 12:22.61 |    3:28.26   |       55711      |      71336
       5  | 15:51.12 |    2:58.28   |       71337      |      84714
       6  | 18:49.40 |    3:40.53   |       84715      |     101267
       7  | 22:30.18 |    3:45.17   |      101268      |     118159
       8  | 26:15.35 |    4:21.48   |      118160      |     137782
       9  | 30:37.08 |    3:54.03   |      137783      |     155335
      10  | 34:31.11 |    4:05.40   |      155336      |     173750
Характеристики диапазона извлечения и сообщения об ошибках
Выбранный диапазон
     Имя файла C:\vlad victorovich\2013 - Сергей Пенкин - Счастье близко\Сергей Пенкин - Счастье близко.wav
     Пиковый уровень 98.8 %
     Скорость извлечения 2.7 X
     Качество диапазона 99.9 %
     CRC теста 110CA210
     CRC копии 110CA210
     Копирование... OK
Ошибок не произошло
AccurateRip: сводка
Трек  1  отсутствует в базе данных
Трек  2  отсутствует в базе данных
Трек  3  отсутствует в базе данных
Трек  4  отсутствует в базе данных
Трек  5  отсутствует в базе данных
Трек  6  отсутствует в базе данных
Трек  7  отсутствует в базе данных
Трек  8  отсутствует в базе данных
Трек  9  отсутствует в базе данных
Трек 10  отсутствует в базе данных
Ни одного трека нет в базе AccurateRip
Конец отчёта
==== Контрольная сумма отчёта C96027ED2F6F9E148D02AB9A9E6F857D6C63BAF88D238D36CE00D0E066B972D1 ====

Отчёт auCDtect Task manager&#58;

-----------------------
DON'T MODIFY THIS FILE
-----------------------
PERFORMER: auCDtect Task Manager, ver. 1.6.0 RC1 build 1.6.0.1
Copyright (c) 2008-2010 y-soft. All rights reserved
http://y-soft.org
ANALYZER: auCDtect: CD records authenticity detector, version 0.8.2
Copyright (c) 2004 Oleg Berngardt. All rights reserved.
Copyright (c) 2004 Alexander Djourik. All rights reserved.
FILE: Сергей Пенкин - Счастье близко.flac
  Size: 288983978 Hash: EC26633CA2F9D0616086DAE164CCFECF Accuracy: -m0
  Conclusion: CDDA 99%
  Signature: 941CA6E934A694F4E25D367B03A9EE9E75175D09
-
Яндекс.Метрика
Рейтинг@Mail.ru