Макс Фадеев - 6 Альбомов (1997-2001) [FLAC|Lossless]<Pop-Rock, Ambient>

 

Создавать темы 21-Дек-2014 21:59

-Макс Фадеев - 6 Альбомов (1997-2001)- Год: 1997-2001
Страна-производитель диска: Россия
Жанр: Pop-Rock, Ambient
Продолжительность: 05:31:35
Кодек: FLAC (*.flac)
Битрейт: Lossless
Тип рипа: tracks+.cue
Спасибо: Парадайзер-Максим Александрович Фадеев (род. 6 мая 1968 года в Кургане) — российский музыкальный продюсер, композитор, режиссёр, автор-исполнитель, аранжировщик.-

Треклист&#58;

1997 - Ножницы

Издатель (лейбл): Кристальная музыка / JSP Jam
Номер по каталогу: 010 078-3
Продолжительность: 00:49:39
Треклист:
1. Акула (3:54)
2. Сестричка (3:35)
3. Тихо несет вода (4:52)
4. Беги по небу (4:46)
5. Кусай свои губы (3:25)
6. Кошка (4:30)
7. Танцы еа стеклах (4:32)
8. Плач и кричи (4:30)
9. В области сердца (3:59)
10. Ножницы (3:37)
11. Бабочки (3:38)
12. Демомикс (4:15)

Отчёт ЕАС&#58;

Exact Audio Copy V0.99 prebeta 5 from 4. May 2009
EAC extraction logfile from 3. August 2009, 20:14
Макс Фадеев / Ножницы
Used drive  : Optiarc DVD RW AD-7200S   Adapter: 0  ID: 0
Read mode               : Secure
Utilize accurate stream : Yes
Defeat audio cache      : Yes
Make use of C2 pointers : No
Read offset correction                      : 48
Overread into Lead-In and Lead-Out          : No
Fill up missing offset samples with silence : Yes
Delete leading and trailing silent blocks   : No
Null samples used in CRC calculations       : Yes
Used interface                              : Native Win32 interface for Win NT & 2000
Gap handling                                : Appended to previous track
Used output format              : User Defined Encoder
Selected bitrate                : 320 kBit/s
Quality                         : High
Add ID3 tag                     : No
Command line compressor         : C:\Program Files\Exact Audio Copy\Flac\flac.exe
Additional command line options : -6 -V -T "ARTIST=%a" -T "TITLE=%t" -T "ALBUM=%g" -T "DATE=%y" -T "TRACKNUMBER=%n" -T "GENRE=%m" -T "COMMENT=%e" %s -o %d
TOC of the extracted CD
     Track |   Start  |  Length  | Start sector | End sector
    ---------------------------------------------------------
        1  |  0:00.00 |  3:54.54 |         0    |    17603
        2  |  3:54.54 |  3:35.39 |     17604    |    33767
        3  |  7:30.18 |  4:52.09 |     33768    |    55676
        4  | 12:22.27 |  4:46.43 |     55677    |    77169
        5  | 17:08.70 |  3:25.35 |     77170    |    92579
        6  | 20:34.30 |  4:30.69 |     92580    |   112898
        7  | 25:05.24 |  4:32.44 |    112899    |   133342
        8  | 29:37.68 |  4:30.62 |    133343    |   153654
        9  | 34:08.55 |  3:59.73 |    153655    |   171652
       10  | 38:08.53 |  3:37.18 |    171653    |   187945
       11  | 41:45.71 |  3:38.58 |    187946    |   204353
       12  | 45:24.54 |  4:15.10 |    204354    |   223488
Track  1
     Filename C:\Recovered Files\Audio\Макс Фадеев\Макс Фадеев - Ножницы (1997)\01 - Акула.wav
     Pre-gap length  0:00:02.00
     Peak level 100.0 %
     Track quality 100.0 %
     Test CRC E3961638
     Copy CRC E3961638
     Track not present in AccurateRip database
     Copy OK
Track  2
     Filename C:\Recovered Files\Audio\Макс Фадеев\Макс Фадеев - Ножницы (1997)\02 - Сестричка.wav
     Peak level 98.6 %
     Track quality 99.9 %
     Test CRC 1C738049
     Copy CRC 1C738049
     Track not present in AccurateRip database
     Copy OK
Track  3
     Filename C:\Recovered Files\Audio\Макс Фадеев\Макс Фадеев - Ножницы (1997)\03 - Тихо несет вода.wav
     Peak level 98.8 %
     Track quality 100.0 %
     Test CRC B7441C36
     Copy CRC B7441C36
     Track not present in AccurateRip database
     Copy OK
Track  4
     Filename C:\Recovered Files\Audio\Макс Фадеев\Макс Фадеев - Ножницы (1997)\04 - Беги по небу.wav
     Peak level 99.4 %
     Track quality 99.9 %
     Test CRC EEF20B6A
     Copy CRC EEF20B6A
     Track not present in AccurateRip database
     Copy OK
Track  5
     Filename C:\Recovered Files\Audio\Макс Фадеев\Макс Фадеев - Ножницы (1997)\05 - Кусай свои губы.wav
     Peak level 99.2 %
     Track quality 100.0 %
     Test CRC 3D632773
     Copy CRC 3D632773
     Track not present in AccurateRip database
     Copy OK
Track  6
     Filename C:\Recovered Files\Audio\Макс Фадеев\Макс Фадеев - Ножницы (1997)\06 - Кошка.wav
     Peak level 99.0 %
     Track quality 100.0 %
     Test CRC 996B9E14
     Copy CRC 996B9E14
     Track not present in AccurateRip database
     Copy OK
Track  7
     Filename C:\Recovered Files\Audio\Макс Фадеев\Макс Фадеев - Ножницы (1997)\07 - Танцы еа стеклах.wav
     Peak level 100.0 %
     Track quality 99.9 %
     Test CRC C76A7B24
     Copy CRC C76A7B24
     Track not present in AccurateRip database
     Copy OK
Track  8
     Filename C:\Recovered Files\Audio\Макс Фадеев\Макс Фадеев - Ножницы (1997)\08 - Плач и кричи.wav
     Peak level 99.4 %
     Track quality 100.0 %
     Test CRC 46223055
     Copy CRC 46223055
     Track not present in AccurateRip database
     Copy OK
Track  9
     Filename C:\Recovered Files\Audio\Макс Фадеев\Макс Фадеев - Ножницы (1997)\09 - В области сердца.wav
     Peak level 99.4 %
     Track quality 100.0 %
     Test CRC B9591C0A
     Copy CRC B9591C0A
     Track not present in AccurateRip database
     Copy OK
Track 10
     Filename C:\Recovered Files\Audio\Макс Фадеев\Макс Фадеев - Ножницы (1997)\10 - Ножницы.wav
     Peak level 99.0 %
     Track quality 100.0 %
     Test CRC E4DD07C1
     Copy CRC E4DD07C1
     Track not present in AccurateRip database
     Copy OK
Track 11
     Filename C:\Recovered Files\Audio\Макс Фадеев\Макс Фадеев - Ножницы (1997)\11 - Бабочки.wav
     Peak level 99.3 %
     Track quality 100.0 %
     Test CRC D3106870
     Copy CRC D3106870
     Track not present in AccurateRip database
     Copy OK
Track 12
     Filename C:\Recovered Files\Audio\Макс Фадеев\Макс Фадеев - Ножницы (1997)\12 - Демомикс.wav
     Peak level 99.7 %
     Track quality 100.0 %
     Test CRC 7AEA858E
     Copy CRC 7AEA858E
     Track not present in AccurateRip database
     Copy OK
None of the tracks are present in the AccurateRip database
No errors occurred
End of status report

1997 - Ножницы (2CD. Первый тираж&#41;

Подарочное издание альбома Ножницы. Представлено на двух 12-сантиметровых дисках (только часть радиуса поверхности каждого диска занято информацией и оформлением). Буклет сделан из "папиросной" бумаги – каждая страница просвечивает. Внутри буклета тексты песен и информация о музыкантах. Издатель (лейбл): Кристальная музыка / JSP Jam
Номер по каталогу: 010 078-2
Продолжительность: 00:46:07-CD1:
Продолжительность: 00:25:28
Трeклист:
01. Акула (3:56)
02. Сестричка (3:40)
03. Тихо несет вода (4:59)
04. Беги по небу (4:50)
05. Кусай свои губы (3:28)
06. Кошка (4:32)

Отчёт ЕАС&#58;

Exact Audio Copy V0.99 prebeta 5 from 4. May 2009
EAC extraction logfile from 22. July 2009, 2:03
Макс Фадеев / Ножницы (2 CD) Диск 1
Used drive  : Optiarc DVD RW AD-7200S   Adapter: 0  ID: 0
Read mode               : Secure
Utilize accurate stream : Yes
Defeat audio cache      : Yes
Make use of C2 pointers : No
Read offset correction                      : 48
Overread into Lead-In and Lead-Out          : No
Fill up missing offset samples with silence : Yes
Delete leading and trailing silent blocks   : No
Null samples used in CRC calculations       : Yes
Used interface                              : Native Win32 interface for Win NT & 2000
Gap handling                                : Appended to previous track
Used output format              : User Defined Encoder
Selected bitrate                : 320 kBit/s
Quality                         : High
Add ID3 tag                     : No
Command line compressor         : C:\Program Files\Exact Audio Copy\Flac\flac.exe
Additional command line options : -6 -V -T "ARTIST=%a" -T "TITLE=%t" -T "ALBUM=%g" -T "DATE=%y" -T "TRACKNUMBER=%n" -T "GENRE=%m" -T "COMMENT=%e" %s -o %d
TOC of the extracted CD
     Track |   Start  |  Length  | Start sector | End sector
    ---------------------------------------------------------
        1  |  0:00.00 |  3:56.68 |         0    |    17767
        2  |  3:56.68 |  3:40.23 |     17768    |    34290
        3  |  7:37.16 |  4:59.55 |     34291    |    56770
        4  | 12:36.71 |  4:50.48 |     56771    |    78568
        5  | 17:27.44 |  3:28.34 |     78569    |    94202
        6  | 20:56.03 |  4:32.58 |     94203    |   114660
Track  1
     Filename C:\Recovered Files\Audio\Макс Фадеев\CD1\01 - Акула.wav
     Pre-gap length  0:00:02.00
     Peak level 94.4 %
     Track quality 100.0 %
     Test CRC 15CE4494
     Copy CRC 15CE4494
     Accurately ripped (confidence 1)  [B8B3155B]
     Copy OK
Track  2
     Filename C:\Recovered Files\Audio\Макс Фадеев\CD1\02 - Сестричка.wav
     Pre-gap length  0:00:03.00
     Peak level 94.3 %
     Track quality 100.0 %
     Test CRC D572CE9C
     Copy CRC D572CE9C
     Accurately ripped (confidence 1)  [81CC1C3F]
     Copy OK
Track  3
     Filename C:\Recovered Files\Audio\Макс Фадеев\CD1\03 - Тихо Несет Вода.wav
     Pre-gap length  0:00:03.00
     Peak level 94.3 %
     Track quality 100.0 %
     Test CRC EE5260F9
     Copy CRC EE5260F9
     Accurately ripped (confidence 1)  [DA280DC9]
     Copy OK
Track  4
     Filename C:\Recovered Files\Audio\Макс Фадеев\CD1\04 - Беги По Небу.wav
     Pre-gap length  0:00:03.00
     Peak level 85.9 %
     Track quality 100.0 %
     Test CRC 78EA2F30
     Copy CRC 78EA2F30
     Accurately ripped (confidence 1)  [2415F47B]
     Copy OK
Track  5
     Filename C:\Recovered Files\Audio\Макс Фадеев\CD1\05 - Кусай Свои Губы.wav
     Pre-gap length  0:00:03.00
     Peak level 95.1 %
     Track quality 100.0 %
     Test CRC 6ECCAACE
     Copy CRC 6ECCAACE
     Accurately ripped (confidence 1)  [04A17591]
     Copy OK
Track  6
     Filename C:\Recovered Files\Audio\Макс Фадеев\CD1\06 - Кошка.wav
     Pre-gap length  0:00:03.00
     Peak level 89.9 %
     Track quality 100.0 %
     Test CRC 868CEC43
     Copy CRC 868CEC43
     Cannot be verified as accurate (confidence 1)  [1F7C254A], AccurateRip returned [9FEBE253]
     Copy OK
5 track(s) accurately ripped
1 track(s) could not be verified as accurate
Some tracks could not be verified as accurate
No errors occurred
End of status report
-CD2:
Продолжительность: 00:20:38
Трeклист:
01. Танцы на стеклах (4:39)
02. Плачь и кричи (4:33)
03. В области сердца (4:07)
04. Ножницы (3:40)
06. Бабочки (3:38)

Отчёт ЕАС&#58;

Exact Audio Copy V0.99 prebeta 5 from 4. May 2009
EAC extraction logfile from 22. July 2009, 2:45
Макс Фадеев / Ножницы (2 CD) Диск 2
Used drive  : Optiarc DVD RW AD-7200S   Adapter: 0  ID: 0
Read mode               : Secure
Utilize accurate stream : Yes
Defeat audio cache      : Yes
Make use of C2 pointers : No
Read offset correction                      : 48
Overread into Lead-In and Lead-Out          : No
Fill up missing offset samples with silence : Yes
Delete leading and trailing silent blocks   : No
Null samples used in CRC calculations       : Yes
Used interface                              : Native Win32 interface for Win NT & 2000
Gap handling                                : Appended to previous track
Used output format              : User Defined Encoder
Selected bitrate                : 320 kBit/s
Quality                         : High
Add ID3 tag                     : No
Command line compressor         : C:\Program Files\Exact Audio Copy\Flac\flac.exe
Additional command line options : -6 -V -T "ARTIST=%a" -T "TITLE=%t" -T "ALBUM=%g" -T "DATE=%y" -T "TRACKNUMBER=%n" -T "GENRE=%m" -T "COMMENT=%e" %s -o %d
TOC of the extracted CD
     Track |   Start  |  Length  | Start sector | End sector
    ---------------------------------------------------------
        1  |  0:00.00 |  4:39.03 |         0    |    20927
        2  |  4:39.03 |  4:33.29 |     20928    |    41431
        3  |  9:12.32 |  4:07.00 |     41432    |    59956
        4  | 13:19.32 |  3:40.36 |     59957    |    76492
        5  | 16:59.68 |  3:38.59 |     76493    |    92901
Track  1
     Filename C:\Recovered Files\Audio\Макс Фадеев\CD2\01 - Танцы на стеклах.wav
     Pre-gap length  0:00:02.00
     Peak level 94.3 %
     Track quality 100.0 %
     Test CRC AA202895
     Copy CRC AA202895
     Accurately ripped (confidence 1)  [C7CB6D38]
     Copy OK
Track  2
     Filename C:\Recovered Files\Audio\Макс Фадеев\CD2\02 - Плачь и кричи.wav
     Pre-gap length  0:00:03.00
     Peak level 94.3 %
     Track quality 100.0 %
     Test CRC A4707508
     Copy CRC A4707508
     Accurately ripped (confidence 1)  [4CB24985]
     Copy OK
Track  3
     Filename C:\Recovered Files\Audio\Макс Фадеев\CD2\03 - В области сердца.wav
     Pre-gap length  0:00:03.00
     Peak level 94.4 %
     Track quality 100.0 %
     Test CRC 42B5DBD4
     Copy CRC 42B5DBD4
     Accurately ripped (confidence 1)  [696F7EF2]
     Copy OK
Track  4
     Filename C:\Recovered Files\Audio\Макс Фадеев\CD2\04 - Ножницы.wav
     Pre-gap length  0:00:03.00
     Peak level 94.4 %
     Track quality 99.9 %
     Test CRC 9F298773
     Copy CRC 9F298773
     Accurately ripped (confidence 1)  [87BDBBD0]
     Copy OK
Track  5
     Filename C:\Recovered Files\Audio\Макс Фадеев\CD2\05 - Бабочки.wav
     Pre-gap length  0:00:03.00
     Peak level 94.3 %
     Track quality 100.0 %
     Test CRC 1A2F9BF4
     Copy CRC 1A2F9BF4
     Accurately ripped (confidence 1)  [0094B882]
     Copy OK
All tracks accurately ripped
No errors occurred
End of status report

1998 - Танцуй На Битом Стекле

Сборник ранних записей, выпущенный в 1998 году. Издатель (лейбл): J.S.P. Company / группа ДЖЕМ
Номер по каталогу: 010 156-2
Продолжительность: 01:03:30
Трeклист:
1991:
1. Время диких зверей (6:52)
2. Иди на свет (5:34)
3. Кокаин (3:21)
4. Иди! (3:04)
5. Игра без огня (4:36)
6. Белый дым (3:08)
7. Кто ты? (4:45)
8. Моей Ленке (0:28)
9. Колыбельная (3:39)
1989:
10. Танцуй на битом стекле (3:01)
11. Воскреси! (2:48)
12. Крохотный дуэт (3:43)
13. Королева (4:31)
14. Вальс (2:53)
15. Господи! (4:20)
16. Опера (3:13)
17. Я войду... (3:34)

Отчёт ЕАС&#58;

Exact Audio Copy V0.99 prebeta 5 from 4. May 2009
EAC extraction logfile from 22. July 2009, 5:20
Макс Фадеев / Танцуй на битом стекле
Used drive  : Optiarc DVD RW AD-7200S   Adapter: 0  ID: 0
Read mode               : Secure
Utilize accurate stream : Yes
Defeat audio cache      : Yes
Make use of C2 pointers : No
Read offset correction                      : 48
Overread into Lead-In and Lead-Out          : No
Fill up missing offset samples with silence : Yes
Delete leading and trailing silent blocks   : No
Null samples used in CRC calculations       : Yes
Used interface                              : Native Win32 interface for Win NT & 2000
Gap handling                                : Appended to previous track
Used output format              : User Defined Encoder
Selected bitrate                : 320 kBit/s
Quality                         : High
Add ID3 tag                     : No
Command line compressor         : C:\Program Files\Exact Audio Copy\Flac\flac.exe
Additional command line options : -6 -V -T "ARTIST=%a" -T "TITLE=%t" -T "ALBUM=%g" -T "DATE=%y" -T "TRACKNUMBER=%n" -T "GENRE=%m" -T "COMMENT=%e" %s -o %d
TOC of the extracted CD
     Track |   Start  |  Length  | Start sector | End sector
    ---------------------------------------------------------
        1  |  0:00.00 |  6:52.00 |         0    |    30899
        2  |  6:52.00 |  5:34.00 |     30900    |    55949
        3  | 12:26.00 |  3:21.00 |     55950    |    71024
        4  | 15:47.00 |  3:04.00 |     71025    |    84824
        5  | 18:51.00 |  4:36.00 |     84825    |   105524
        6  | 23:27.00 |  3:08.00 |    105525    |   119624
        7  | 26:35.00 |  4:45.00 |    119625    |   140999
        8  | 31:20.00 |  0:28.00 |    141000    |   143099
        9  | 31:48.00 |  3:39.00 |    143100    |   159524
       10  | 35:27.00 |  3:01.00 |    159525    |   173099
       11  | 38:28.00 |  2:48.00 |    173100    |   185699
       12  | 41:16.00 |  3:43.00 |    185700    |   202424
       13  | 44:59.00 |  4:31.00 |    202425    |   222749
       14  | 49:30.00 |  2:53.00 |    222750    |   235724
       15  | 52:23.00 |  4:20.00 |    235725    |   255224
       16  | 56:43.00 |  3:13.00 |    255225    |   269699
       17  | 59:56.00 |  3:34.00 |    269700    |   285749
Track  1
     Filename C:\Recovered Files\Audio\Макс Фадеев\Макс Фадеев - Танцуй На Битом Стекле (1998)\01 - Время диких зверей.wav
     Pre-gap length  0:00:02.00
     Peak level 100.0 %
     Track quality 100.0 %
     Test CRC BCC43C69
     Copy CRC BCC43C69
     Accurately ripped (confidence 1)  [85690356]
     Copy OK
Track  2
     Filename C:\Recovered Files\Audio\Макс Фадеев\Макс Фадеев - Танцуй На Битом Стекле (1998)\02 - Иди на свет.wav
     Peak level 100.0 %
     Track quality 100.0 %
     Test CRC 157DB027
     Copy CRC 157DB027
     Accurately ripped (confidence 1)  [02DB7B61]
     Copy OK
Track  3
     Filename C:\Recovered Files\Audio\Макс Фадеев\Макс Фадеев - Танцуй На Битом Стекле (1998)\03 - Кокаин.wav
     Peak level 99.9 %
     Track quality 100.0 %
     Test CRC E58F182B
     Copy CRC E58F182B
     Accurately ripped (confidence 1)  [50CB0E76]
     Copy OK
Track  4
     Filename C:\Recovered Files\Audio\Макс Фадеев\Макс Фадеев - Танцуй На Битом Стекле (1998)\04 - Иди!.wav
     Peak level 95.8 %
     Track quality 100.0 %
     Test CRC 72B390F0
     Copy CRC 72B390F0
     Accurately ripped (confidence 1)  [BCD6CB01]
     Copy OK
Track  5
     Filename C:\Recovered Files\Audio\Макс Фадеев\Макс Фадеев - Танцуй На Битом Стекле (1998)\05 - Игра без огня.wav
     Peak level 92.6 %
     Track quality 100.0 %
     Test CRC 43459061
     Copy CRC 43459061
     Accurately ripped (confidence 1)  [EC3EEC34]
     Copy OK
Track  6
     Filename C:\Recovered Files\Audio\Макс Фадеев\Макс Фадеев - Танцуй На Битом Стекле (1998)\06 - Белый дым.wav
     Peak level 70.3 %
     Track quality 100.0 %
     Test CRC A87416E8
     Copy CRC A87416E8
     Accurately ripped (confidence 1)  [E010A17A]
     Copy OK
Track  7
     Filename C:\Recovered Files\Audio\Макс Фадеев\Макс Фадеев - Танцуй На Битом Стекле (1998)\07 - Кто ты .wav
     Peak level 76.1 %
     Track quality 100.0 %
     Test CRC 01CC2189
     Copy CRC 01CC2189
     Accurately ripped (confidence 1)  [CCD272B4]
     Copy OK
Track  8
     Filename C:\Recovered Files\Audio\Макс Фадеев\Макс Фадеев - Танцуй На Битом Стекле (1998)\08 - Моей Ленке.wav
     Peak level 70.1 %
     Track quality 100.0 %
     Test CRC 26CC7BFA
     Copy CRC 26CC7BFA
     Accurately ripped (confidence 1)  [A97C8ACF]
     Copy OK
Track  9
     Filename C:\Recovered Files\Audio\Макс Фадеев\Макс Фадеев - Танцуй На Битом Стекле (1998)\09 - Колыбельная.wav
     Peak level 62.1 %
     Track quality 100.0 %
     Test CRC 6942C445
     Copy CRC 6942C445
     Accurately ripped (confidence 1)  [0DAEA8BD]
     Copy OK
Track 10
     Filename C:\Recovered Files\Audio\Макс Фадеев\Макс Фадеев - Танцуй На Битом Стекле (1998)\10 - Танцуй на битом стекле.wav
     Peak level 96.5 %
     Track quality 99.9 %
     Test CRC 991DFF42
     Copy CRC 991DFF42
     Accurately ripped (confidence 1)  [7C3DF369]
     Copy OK
Track 11
     Filename C:\Recovered Files\Audio\Макс Фадеев\Макс Фадеев - Танцуй На Битом Стекле (1998)\11 - Воскреси!.wav
     Peak level 99.9 %
     Track quality 99.9 %
     Test CRC D81A5B7D
     Copy CRC D81A5B7D
     Accurately ripped (confidence 1)  [F062345F]
     Copy OK
Track 12
     Filename C:\Recovered Files\Audio\Макс Фадеев\Макс Фадеев - Танцуй На Битом Стекле (1998)\12 - Крохотный дуэт.wav
     Peak level 88.1 %
     Track quality 100.0 %
     Test CRC CD071EF6
     Copy CRC CD071EF6
     Accurately ripped (confidence 1)  [44AC020E]
     Copy OK
Track 13
     Filename C:\Recovered Files\Audio\Макс Фадеев\Макс Фадеев - Танцуй На Битом Стекле (1998)\13 - Королева.wav
     Peak level 82.0 %
     Track quality 100.0 %
     Test CRC 111F0659
     Copy CRC 111F0659
     Accurately ripped (confidence 1)  [E2ED8C0B]
     Copy OK
Track 14
     Filename C:\Recovered Files\Audio\Макс Фадеев\Макс Фадеев - Танцуй На Битом Стекле (1998)\14 - Вальс.wav
     Peak level 95.1 %
     Track quality 99.9 %
     Test CRC 508D6A42
     Copy CRC 508D6A42
     Accurately ripped (confidence 1)  [C7C51132]
     Copy OK
Track 15
     Filename C:\Recovered Files\Audio\Макс Фадеев\Макс Фадеев - Танцуй На Битом Стекле (1998)\15 - Господи!.wav
     Peak level 89.6 %
     Track quality 99.9 %
     Test CRC 43780343
     Copy CRC 43780343
     Accurately ripped (confidence 1)  [72EDFF2E]
     Copy OK
Track 16
     Filename C:\Recovered Files\Audio\Макс Фадеев\Макс Фадеев - Танцуй На Битом Стекле (1998)\16 - Опера.wav
     Peak level 78.9 %
     Track quality 100.0 %
     Test CRC 94174FED
     Copy CRC 94174FED
     Accurately ripped (confidence 1)  [A1CE5896]
     Copy OK
Track 17
     Filename C:\Recovered Files\Audio\Макс Фадеев\Макс Фадеев - Танцуй На Битом Стекле (1998)\17 - Я войду....wav
     Peak level 88.3 %
     Track quality 100.0 %
     Test CRC 860963FD
     Copy CRC 860963FD
     Accurately ripped (confidence 1)  [0B14B03C]
     Copy OK
All tracks accurately ripped
No errors occurred
End of status report

1999 - Нега

Издатель (лейбл): J.S.P. Company / группа ДЖЕМ
Номер по каталогу: 010 178-2
Продолжительность: 00:52:55
Трeклист:
1. Восхождение (8:51)
2. Там, где спишь (4:56)
3. Когда откроешь глаза (5:34)
4. Поезд в небо (6:14)
5. Пульс птицы (5:16)
6. Под водой (2:11)
7. Одиночество (8:07)
8. То: что вижу (1:08)
9. Выход в черное (6:02)
10. Выход в белое (2:54)
11. Моей дочке (1:38)

Отчёт ЕАС&#58;

Exact Audio Copy V0.99 prebeta 5 from 4. May 2009
EAC extraction logfile from 2. August 2009, 1:52
Макс Фадеев / Нега
Used drive  : Optiarc DVD RW AD-7200S   Adapter: 0  ID: 0
Read mode               : Secure
Utilize accurate stream : Yes
Defeat audio cache      : Yes
Make use of C2 pointers : No
Read offset correction                      : 48
Overread into Lead-In and Lead-Out          : No
Fill up missing offset samples with silence : Yes
Delete leading and trailing silent blocks   : No
Null samples used in CRC calculations       : Yes
Used interface                              : Native Win32 interface for Win NT & 2000
Gap handling                                : Appended to previous track
Used output format              : User Defined Encoder
Selected bitrate                : 320 kBit/s
Quality                         : High
Add ID3 tag                     : No
Command line compressor         : C:\Program Files\Exact Audio Copy\Flac\flac.exe
Additional command line options : -6 -V -T "ARTIST=%a" -T "TITLE=%t" -T "ALBUM=%g" -T "DATE=%y" -T "TRACKNUMBER=%n" -T "GENRE=%m" -T "COMMENT=%e" %s -o %d
TOC of the extracted CD
     Track |   Start  |  Length  | Start sector | End sector
    ---------------------------------------------------------
        1  |  0:00.00 |  8:51.07 |         0    |    39831
        2  |  8:51.07 |  4:56.17 |     39832    |    62048
        3  | 13:47.24 |  5:34.23 |     62049    |    87121
        4  | 19:21.47 |  6:14.33 |     87122    |   115204
        5  | 25:36.05 |  5:16.53 |    115205    |   138957
        6  | 30:52.58 |  2:11.50 |    138958    |   148832
        7  | 33:04.33 |  8:07.22 |    148833    |   185379
        8  | 41:11.55 |  1:08.26 |    185380    |   190505
        9  | 42:20.06 |  6:02.72 |    190506    |   217727
       10  | 48:23.03 |  2:54.58 |    217728    |   230835
       11  | 51:17.61 |  1:38.00 |    230836    |   238185
Track  1
     Filename C:\Recovered Files\Audio\Макс Фадеев\Макс Фадеев - Нега (1999)\01 - Восхождение.wav
     Pre-gap length  0:00:02.00
     Peak level 100.0 %
     Track quality 100.0 %
     Test CRC 6024C08E
     Copy CRC 6024C08E
     Accurately ripped (confidence 1)  [E1AF5CF7]
     Copy OK
Track  2
     Filename C:\Recovered Files\Audio\Макс Фадеев\Макс Фадеев - Нега (1999)\02 - Там, где спишь.wav
     Peak level 79.6 %
     Track quality 100.0 %
     Test CRC 3DEC9F06
     Copy CRC 3DEC9F06
     Accurately ripped (confidence 1)  [854D0CD4]
     Copy OK
Track  3
     Filename C:\Recovered Files\Audio\Макс Фадеев\Макс Фадеев - Нега (1999)\03 - Когда откроешь глаза.wav
     Peak level 94.4 %
     Track quality 100.0 %
     Test CRC 54D84DD6
     Copy CRC 54D84DD6
     Accurately ripped (confidence 1)  [47E1717A]
     Copy OK
Track  4
     Filename C:\Recovered Files\Audio\Макс Фадеев\Макс Фадеев - Нега (1999)\04 - Поезд в небо.wav
     Peak level 86.4 %
     Track quality 100.0 %
     Test CRC C4FAB366
     Copy CRC C4FAB366
     Accurately ripped (confidence 1)  [F4FCB7F8]
     Copy OK
Track  5
     Filename C:\Recovered Files\Audio\Макс Фадеев\Макс Фадеев - Нега (1999)\05 - Пульс птицы.wav
     Peak level 95.6 %
     Track quality 100.0 %
     Test CRC 2327640D
     Copy CRC 2327640D
     Accurately ripped (confidence 1)  [4EF90833]
     Copy OK
Track  6
     Filename C:\Recovered Files\Audio\Макс Фадеев\Макс Фадеев - Нега (1999)\06 - Под водой.wav
     Peak level 20.4 %
     Track quality 100.0 %
     Test CRC 61992AC0
     Copy CRC 61992AC0
     Accurately ripped (confidence 1)  [ED4A1FC9]
     Copy OK
Track  7
     Filename C:\Recovered Files\Audio\Макс Фадеев\Макс Фадеев - Нега (1999)\07 - Одиночество.wav
     Peak level 82.1 %
     Track quality 100.0 %
     Test CRC 80060D11
     Copy CRC 80060D11
     Accurately ripped (confidence 1)  [F1622183]
     Copy OK
Track  8
     Filename C:\Recovered Files\Audio\Макс Фадеев\Макс Фадеев - Нега (1999)\08 - То- что вижу.wav
     Peak level 48.5 %
     Track quality 100.0 %
     Test CRC DB9F7F96
     Copy CRC DB9F7F96
     Accurately ripped (confidence 1)  [FA2FF736]
     Copy OK
Track  9
     Filename C:\Recovered Files\Audio\Макс Фадеев\Макс Фадеев - Нега (1999)\09 - Выход в черное.wav
     Peak level 100.0 %
     Track quality 99.9 %
     Test CRC BCAD4DFA
     Copy CRC BCAD4DFA
     Accurately ripped (confidence 1)  [73579234]
     Copy OK
Track 10
     Filename C:\Recovered Files\Audio\Макс Фадеев\Макс Фадеев - Нега (1999)\10 - Выход в белое.wav
     Peak level 97.7 %
     Track quality 100.0 %
     Test CRC 3002A3A9
     Copy CRC 3002A3A9
     Accurately ripped (confidence 1)  [D6FE5C1D]
     Copy OK
Track 11
     Filename C:\Recovered Files\Audio\Макс Фадеев\Макс Фадеев - Нега (1999)\11 - Моей дочке.wav
     Peak level 58.1 %
     Track quality 99.8 %
     Test CRC B3C97D8A
     Copy CRC B3C97D8A
     Accurately ripped (confidence 1)  [CFAAD6A8]
     Copy OK
All tracks accurately ripped
No errors occurred
End of status report

2001 - The Red One - Triumph

Издатель (лейбл): Real Records
Номер по каталогу: RR-082-CD
Продолжительность: 00:52:40
Трeклист:
1. Oil Plant - Even (Oil Plant) (5:14)
2. Максим Фадеев - Кукла (3:31)
3. Максим Фадеев - Погнали (2:32)
4. Максим Фадеев - От Винта (4:19)
5. Total - Алая Талая (Remix Triplex) (4:35)
6. Максим Фадеев - Война (5:22)
7. Максим Фадеев - Я Выкрашу Тебя В Свой Цвет (4:03)
8. Максим Фадеев - Я Не Верю Твоим Глазам (Original) (3:31)
9. Максим Фадеев - Молекула (3:53)
10. Total - Алая Талая (Original) (3:34)
11. Максим Фадеев - Я Не Верю Твоим Глазам (Remix DJ KoK) (4:14)
12. Total - Я Смотрела Вперед (3:43)
13. Максим Фадеев - Лети За Мной (4:03)

Отчёт ЕАС&#58;

Exact Audio Copy V0.99 prebeta 5 from 4. May 2009
EAC extraction logfile from 2. August 2009, 3:26
Various Artists / The Red One. (Triumph Soundtrack)
Used drive  : Optiarc DVD RW AD-7200S   Adapter: 0  ID: 0
Read mode               : Secure
Utilize accurate stream : Yes
Defeat audio cache      : Yes
Make use of C2 pointers : No
Read offset correction                      : 48
Overread into Lead-In and Lead-Out          : No
Fill up missing offset samples with silence : Yes
Delete leading and trailing silent blocks   : No
Null samples used in CRC calculations       : Yes
Used interface                              : Native Win32 interface for Win NT & 2000
Gap handling                                : Appended to previous track
Used output format              : User Defined Encoder
Selected bitrate                : 320 kBit/s
Quality                         : High
Add ID3 tag                     : No
Command line compressor         : C:\Program Files\Exact Audio Copy\Flac\flac.exe
Additional command line options : -6 -V -T "ARTIST=%a" -T "TITLE=%t" -T "ALBUM=%g" -T "DATE=%y" -T "TRACKNUMBER=%n" -T "GENRE=%m" -T "COMMENT=%e" %s -o %d
TOC of the extracted CD
     Track |   Start  |  Length  | Start sector | End sector
    ---------------------------------------------------------
        1  |  0:00.00 |  5:14.54 |         0    |    23603
        2  |  5:14.54 |  3:31.60 |     23604    |    39488
        3  |  8:46.39 |  2:32.14 |     39489    |    50902
        4  | 11:18.53 |  4:19.65 |     50903    |    70392
        5  | 15:38.43 |  4:35.29 |     70393    |    91046
        6  | 20:13.72 |  5:22.30 |     91047    |   115226
        7  | 25:36.27 |  4:03.12 |    115227    |   133463
        8  | 29:39.39 |  3:31.31 |    133464    |   149319
        9  | 33:10.70 |  3:53.69 |    149320    |   166863
       10  | 37:04.64 |  3:34.28 |    166864    |   182941
       11  | 40:39.17 |  4:14.69 |    182942    |   202060
       12  | 44:54.11 |  3:43.19 |    202061    |   218804
       13  | 48:37.30 |  4:03.43 |    218805    |   237072
Track  1
     Filename C:\Recovered Files\Audio\Макс Фадеев\Макс Фадеев - The Red One - Triumph (2001)\01 - Oil Plant - Even (Oil Plant).wav
     Pre-gap length  0:00:02.00
     Peak level 99.9 %
     Track quality 100.0 %
     Test CRC BF976D6C
     Copy CRC BF976D6C
     Track not present in AccurateRip database
     Copy OK
Track  2
     Filename C:\Recovered Files\Audio\Макс Фадеев\Макс Фадеев - The Red One - Triumph (2001)\02 - Максим Фадеев - Кукла.wav
     Peak level 99.9 %
     Track quality 100.0 %
     Test CRC 59919570
     Copy CRC 59919570
     Track not present in AccurateRip database
     Copy OK
Track  3
     Filename C:\Recovered Files\Audio\Макс Фадеев\Макс Фадеев - The Red One - Triumph (2001)\03 - Максим Фадеев - Погнали.wav
     Peak level 99.9 %
     Track quality 100.0 %
     Test CRC 10A8A8C3
     Copy CRC 10A8A8C3
     Track not present in AccurateRip database
     Copy OK
Track  4
     Filename C:\Recovered Files\Audio\Макс Фадеев\Макс Фадеев - The Red One - Triumph (2001)\04 - Максим Фадеев - От Винта.wav
     Peak level 99.9 %
     Track quality 100.0 %
     Test CRC F0A781D8
     Copy CRC F0A781D8
     Track not present in AccurateRip database
     Copy OK
Track  5
     Filename C:\Recovered Files\Audio\Макс Фадеев\Макс Фадеев - The Red One - Triumph (2001)\05 - Total - Алая Талая (Remix Triplex).wav
     Peak level 99.9 %
     Track quality 100.0 %
     Test CRC 3E9BC53F
     Copy CRC 3E9BC53F
     Track not present in AccurateRip database
     Copy OK
Track  6
     Filename C:\Recovered Files\Audio\Макс Фадеев\Макс Фадеев - The Red One - Triumph (2001)\06 - Максим Фадеев - Война.wav
     Peak level 99.9 %
     Track quality 99.9 %
     Test CRC 4F9AACE0
     Copy CRC 4F9AACE0
     Track not present in AccurateRip database
     Copy OK
Track  7
     Filename C:\Recovered Files\Audio\Макс Фадеев\Макс Фадеев - The Red One - Triumph (2001)\07 - Максим Фадеев - Я Выкрашу Тебя В Свой Цвет.wav
     Peak level 99.9 %
     Track quality 100.0 %
     Test CRC 5E20A186
     Copy CRC 5E20A186
     Track not present in AccurateRip database
     Copy OK
Track  8
     Filename C:\Recovered Files\Audio\Макс Фадеев\Макс Фадеев - The Red One - Triumph (2001)\08 - Максим Фадеев - Я Не Верю Твоим Глазам (Original).wav
     Peak level 99.9 %
     Track quality 100.0 %
     Test CRC F9C1B1B8
     Copy CRC F9C1B1B8
     Track not present in AccurateRip database
     Copy OK
Track  9
     Filename C:\Recovered Files\Audio\Макс Фадеев\Макс Фадеев - The Red One - Triumph (2001)\09 - Максим Фадеев - Молекула.wav
     Peak level 100.0 %
     Track quality 100.0 %
     Test CRC 2666491D
     Copy CRC 2666491D
     Track not present in AccurateRip database
     Copy OK
Track 10
     Filename C:\Recovered Files\Audio\Макс Фадеев\Макс Фадеев - The Red One - Triumph (2001)\10 - Total - Алая Талая (Original).wav
     Peak level 100.0 %
     Track quality 100.0 %
     Test CRC B6D41194
     Copy CRC B6D41194
     Track not present in AccurateRip database
     Copy OK
Track 11
     Filename C:\Recovered Files\Audio\Макс Фадеев\Макс Фадеев - The Red One - Triumph (2001)\11 - Максим Фадеев - Я Не Верю Твоим Глазам (Remix DJ KoK).wav
     Peak level 100.0 %
     Track quality 100.0 %
     Test CRC 8B6C75DF
     Copy CRC 8B6C75DF
     Track not present in AccurateRip database
     Copy OK
Track 12
     Filename C:\Recovered Files\Audio\Макс Фадеев\Макс Фадеев - The Red One - Triumph (2001)\12 - Total - Я Смотрела Вперед.wav
     Peak level 100.0 %
     Track quality 100.0 %
     Test CRC BB97783A
     Copy CRC BB97783A
     Track not present in AccurateRip database
     Copy OK
Track 13
     Filename C:\Recovered Files\Audio\Макс Фадеев\Макс Фадеев - The Red One - Triumph (2001)\13 - Максим Фадеев - Лети За Мной.wav
     Peak level 99.9 %
     Track quality 100.0 %
     Test CRC EC169CE6
     Copy CRC EC169CE6
     Track not present in AccurateRip database
     Copy OK
None of the tracks are present in the AccurateRip database
No errors occurred
End of status report

2001 - Звездная Коллекция

Издатель (лейбл): Кристальная музыка / JSP Jam
Номер по каталогу: 010 225-2
Продолжительность: 01:07:14
Трeклист:
1. Беги по небу (4:46)
2. Сестричка (3:36)
3. В области сердца (4:01)
4. Танцуй на битом стекле (2:55)
5. Господи! (4:14)
6. Кусай свои губы (3:24)
7. Акула (3:53)
8. Кто ты? (4:41)
9. Под водой (2:04)
10. Выход в белое (2:54)
11. Тихо несет вода (4:55)
12. Иди на свет (5:28)
13. Бабочки (3:38)
14. Ножницы (3:37)
15. Кокаин (3:17)
16. Игра без огня (кошка) (4:31)
17. Моей дочке (1:36)
18. Колыбельная (3:35)

Отчёт ЕАС&#58;

Exact Audio Copy V0.99 prebeta 5 from 4. May 2009
EAC extraction logfile from 2. August 2009, 11:57
Макс Фадеев / Звездная Коллекция
Used drive  : Optiarc DVD RW AD-7200S   Adapter: 0  ID: 0
Read mode               : Secure
Utilize accurate stream : Yes
Defeat audio cache      : Yes
Make use of C2 pointers : No
Read offset correction                      : 48
Overread into Lead-In and Lead-Out          : No
Fill up missing offset samples with silence : Yes
Delete leading and trailing silent blocks   : No
Null samples used in CRC calculations       : Yes
Used interface                              : Native Win32 interface for Win NT & 2000
Gap handling                                : Appended to previous track
Used output format              : User Defined Encoder
Selected bitrate                : 320 kBit/s
Quality                         : High
Add ID3 tag                     : No
Command line compressor         : C:\Program Files\Exact Audio Copy\Flac\flac.exe
Additional command line options : -6 -V -T "ARTIST=%a" -T "TITLE=%t" -T "ALBUM=%g" -T "DATE=%y" -T "TRACKNUMBER=%n" -T "GENRE=%m" -T "COMMENT=%e" %s -o %d
TOC of the extracted CD
     Track |   Start  |  Length  | Start sector | End sector
    ---------------------------------------------------------
        1  |  0:00.00 |  4:46.10 |         0    |    21459
        2  |  4:46.10 |  3:36.35 |     21460    |    37694
        3  |  8:22.45 |  4:01.60 |     37695    |    55829
        4  | 12:24.30 |  2:55.13 |     55830    |    68967
        5  | 15:19.43 |  4:14.72 |     68968    |    88089
        6  | 19:34.40 |  3:24.60 |     88090    |   103449
        7  | 22:59.25 |  3:53.58 |    103450    |   120982
        8  | 26:53.08 |  4:41.45 |    120983    |   142102
        9  | 31:34.53 |  2:04.47 |    142103    |   151449
       10  | 33:39.25 |  2:54.28 |    151450    |   164527
       11  | 36:33.53 |  4:55.45 |    164528    |   186697
       12  | 41:29.23 |  5:28.30 |    186698    |   211327
       13  | 46:57.53 |  3:38.27 |    211328    |   227704
       14  | 50:36.05 |  3:37.20 |    227705    |   243999
       15  | 54:13.25 |  3:17.60 |    244000    |   258834
       16  | 57:31.10 |  4:31.33 |    258835    |   279192
       17  | 62:02.43 |  1:36.60 |    279193    |   286452
       18  | 63:39.28 |  3:35.02 |    286453    |   302579
Track  1
     Filename C:\Recovered Files\Audio\Макс Фадеев\Макс Фадеев - Звездная Коллекция (2001)\01 - Беги по небу.wav
     Pre-gap length  0:00:02.00
     Peak level 85.9 %
     Track quality 100.0 %
     Test CRC 0980EBF2
     Copy CRC 0980EBF2
     Track not present in AccurateRip database
     Copy OK
Track  2
     Filename C:\Recovered Files\Audio\Макс Фадеев\Макс Фадеев - Звездная Коллекция (2001)\02 - Сестричка.wav
     Peak level 94.3 %
     Track quality 100.0 %
     Test CRC FFEE90B5
     Copy CRC FFEE90B5
     Track not present in AccurateRip database
     Copy OK
Track  3
     Filename C:\Recovered Files\Audio\Макс Фадеев\Макс Фадеев - Звездная Коллекция (2001)\03 - В области сердца.wav
     Peak level 94.4 %
     Track quality 100.0 %
     Test CRC F7609FB1
     Copy CRC F7609FB1
     Track not present in AccurateRip database
     Copy OK
Track  4
     Filename C:\Recovered Files\Audio\Макс Фадеев\Макс Фадеев - Звездная Коллекция (2001)\04 - Танцуй на битом стекле.wav
     Peak level 96.5 %
     Track quality 100.0 %
     Test CRC 9C7F9EDD
     Copy CRC 9C7F9EDD
     Track not present in AccurateRip database
     Copy OK
Track  5
     Filename C:\Recovered Files\Audio\Макс Фадеев\Макс Фадеев - Звездная Коллекция (2001)\05 - Господи!.wav
     Peak level 89.6 %
     Track quality 100.0 %
     Test CRC DF7CB2EB
     Copy CRC DF7CB2EB
     Track not present in AccurateRip database
     Copy OK
Track  6
     Filename C:\Recovered Files\Audio\Макс Фадеев\Макс Фадеев - Звездная Коллекция (2001)\06 - Кусай свои губы.wav
     Peak level 95.1 %
     Track quality 100.0 %
     Test CRC 73976C8D
     Copy CRC 73976C8D
     Track not present in AccurateRip database
     Copy OK
Track  7
     Filename C:\Recovered Files\Audio\Макс Фадеев\Макс Фадеев - Звездная Коллекция (2001)\07 - Акула.wav
     Peak level 94.4 %
     Track quality 99.9 %
     Test CRC F83B16FD
     Copy CRC F83B16FD
     Track not present in AccurateRip database
     Copy OK
Track  8
     Filename C:\Recovered Files\Audio\Макс Фадеев\Макс Фадеев - Звездная Коллекция (2001)\08 - Кто ты .wav
     Peak level 76.1 %
     Track quality 99.9 %
     Test CRC 8E1E31E5
     Copy CRC 8E1E31E5
     Track not present in AccurateRip database
     Copy OK
Track  9
     Filename C:\Recovered Files\Audio\Макс Фадеев\Макс Фадеев - Звездная Коллекция (2001)\09 - Под водой.wav
     Peak level 20.4 %
     Track quality 99.9 %
     Test CRC DBDDA057
     Copy CRC DBDDA057
     Track not present in AccurateRip database
     Copy OK
Track 10
     Filename C:\Recovered Files\Audio\Макс Фадеев\Макс Фадеев - Звездная Коллекция (2001)\10 - Выход в белое.wav
     Peak level 97.7 %
     Track quality 100.0 %
     Test CRC A32701C8
     Copy CRC A32701C8
     Track not present in AccurateRip database
     Copy OK
Track 11
     Filename C:\Recovered Files\Audio\Макс Фадеев\Макс Фадеев - Звездная Коллекция (2001)\11 - Тихо несет вода.wav
     Peak level 94.3 %
     Track quality 100.0 %
     Test CRC 086565CA
     Copy CRC 086565CA
     Track not present in AccurateRip database
     Copy OK
Track 12
     Filename C:\Recovered Files\Audio\Макс Фадеев\Макс Фадеев - Звездная Коллекция (2001)\12 - Иди на свет.wav
     Peak level 100.0 %
     Track quality 99.9 %
     Test CRC C262634B
     Copy CRC C262634B
     Track not present in AccurateRip database
     Copy OK
Track 13
     Filename C:\Recovered Files\Audio\Макс Фадеев\Макс Фадеев - Звездная Коллекция (2001)\13 - Бабочки.wav
     Peak level 94.3 %
     Track quality 100.0 %
     Test CRC D576AE4C
     Copy CRC D576AE4C
     Track not present in AccurateRip database
     Copy OK
Track 14
     Filename C:\Recovered Files\Audio\Макс Фадеев\Макс Фадеев - Звездная Коллекция (2001)\14 - Ножницы.wav
     Peak level 94.4 %
     Track quality 100.0 %
     Test CRC 15AEE87F
     Copy CRC 15AEE87F
     Track not present in AccurateRip database
     Copy OK
Track 15
     Filename C:\Recovered Files\Audio\Макс Фадеев\Макс Фадеев - Звездная Коллекция (2001)\15 - Кокаин.wav
     Peak level 99.9 %
     Track quality 100.0 %
     Test CRC 6EB6651D
     Copy CRC 6EB6651D
     Track not present in AccurateRip database
     Copy OK
Track 16
     Filename C:\Recovered Files\Audio\Макс Фадеев\Макс Фадеев - Звездная Коллекция (2001)\16 - Игра без огня (кошка).wav
     Peak level 89.9 %
     Track quality 100.0 %
     Test CRC 5CA46A7B
     Copy CRC 5CA46A7B
     Track not present in AccurateRip database
     Copy OK
Track 17
     Filename C:\Recovered Files\Audio\Макс Фадеев\Макс Фадеев - Звездная Коллекция (2001)\17 - Моей дочке.wav
     Peak level 58.1 %
     Track quality 100.0 %
     Test CRC 8FE581AA
     Copy CRC 8FE581AA
     Track not present in AccurateRip database
     Copy OK
Track 18
     Filename C:\Recovered Files\Audio\Макс Фадеев\Макс Фадеев - Звездная Коллекция (2001)\18 - Колыбельная.wav
     Peak level 62.1 %
     Track quality 100.0 %
     Test CRC 217F7486
     Copy CRC 217F7486
     Track not present in AccurateRip database
     Copy OK
None of the tracks are present in the AccurateRip database
No errors occurred
End of status report
-
Яндекс.Метрика
Рейтинг@Mail.ru