[ Сегодня на трекере фрилич! Идет свободное скачивание без начисления Download ]

Аркадий Хоралов - 7 альбомов (2005-2008) Дискография [FLAC|Lossless]<Pop>

 

Создавать темы 21-Дек-2014 21:59

-Аркадий Хоралов - 7 альбомов (2005-2008) Дискография- Жанр: Pop/эстрада
Страна-производитель дисков: Россия
Год издания: 2005-2008
Страна: СССР-Россия
Аудиокодек: FLAC (*.flac)
Тип рипа: image+.cue
Битрейт: lossless
Наличие сканов в содержимом раздачи: да-

Треклист&#58;

1978-1981 - Давай попробуем вернуть

Год издания: 2005
Издатель (лейбл): Студия Монолит
Номер по каталогу: МТ 711507-049-1
Продолжительность: 00:53:26
Трек лист:
01. Давай попробуем вернуть
02. Горький мёд
03. Встречай меня
04. Возврати мне любовь
05. Помни
06. Сумерки (давай помолчим...)
07. Говори мне
08. Убежать бы
09. Прости, солдат
10. Недотрога
11. Ясно всё

Отчёт ЕАС&#58;

Exact Audio Copy V1.0 beta 3 from 29. August 2011
Отчёт EAC об извлечении, выполненном 9. апреля 2013, 22:44
Аркадий Хоралов / Давай попробуем вернуть
Дисковод: TS8XDVDRTranscend Adapter: 2 ID: 0
Режим чтения : Достоверность
Использование точного потока : Да
Отключение кэша аудио : Да
Использование указателей C2 : Нет
Коррекция смещения при чтении : 6
Способность читать области Lead-in и Lead-out : Нет
Заполнение пропущенных сэмплов тишиной : Да
Удаление блоков с тишиной в начале и конце : Нет
При вычислениях CRC использовались нулевые сэмплы : Да
Интерфейс : Встроенный Win32-интерфейс для Win NT/2000
Выходной формат : Пользовательский кодировщик
Выбранный битрейт : 128 kBit/s
Качество : Высокий
Добавление ID3-тега : Нет
Утилита сжатия : C:\Program Files\Exact Audio Copy\FLAC\FLAC.EXE
Дополнительные параметры : -V -8 -T "Date=%year%" -T "Genre=%genre%" %source%
TOC извлечённого CD
Трек | Старт | Длительность | Начальный сектор | Конечный сектор
---------------------------------------------------------------------
1 | 0:00.00 | 3:40.39 | 0 | 16538
2 | 3:40.39 | 5:11.51 | 16539 | 39914
3 | 8:52.15 | 4:00.31 | 39915 | 57945
4 | 12:52.46 | 5:12.17 | 57946 | 81362
5 | 18:04.63 | 6:19.42 | 81363 | 109829
6 | 24:24.30 | 5:12.03 | 109830 | 133232
7 | 29:36.33 | 3:35.51 | 133233 | 149408
8 | 33:12.09 | 4:57.66 | 149409 | 171749
9 | 38:10.00 | 5:48.47 | 171750 | 197896
10 | 43:58.47 | 3:25.51 | 197897 | 213322
11 | 47:24.23 | 6:01.73 | 213323 | 240470
Характеристики диапазона извлечения и сообщения об ошибках
Выбранный диапазон
Имя файла C:\Documents and Settings\Пользователь\Мои документы\Раздачи на torrents.ru\Аркадий Хоралов - Давай попробуем вернуть.wav
Пиковый уровень 98.8 %
Скорость извлечения 1.6 X
Качество диапазона 100.0 %
CRC теста 2E9C764E
CRC копии 2E9C764E
Копирование... OK
Ошибок не произошло
AccurateRip: сводка
Трек 1 отсутствует в базе данных
Трек 2 отсутствует в базе данных
Трек 3 отсутствует в базе данных
Трек 4 отсутствует в базе данных
Трек 5 отсутствует в базе данных
Трек 6 отсутствует в базе данных
Трек 7 отсутствует в базе данных
Трек 8 отсутствует в базе данных
Трек 9 отсутствует в базе данных
Трек 10 отсутствует в базе данных
Трек 11 отсутствует в базе данных
Ни одного трека нет в базе AccurateRip
Конец отчёта
==== Контрольная сумма отчёта 440C226AF72E447D55AA983DD24A2B29655D8741F603933FDE9E6FA01EB896F6 ====

Отчёт auCDtect Task manager

-----------------------
DON'T MODIFY THIS FILE
-----------------------
PERFORMER: auCDtect Task Manager, ver. 1.5.1RC6 build 1.5.1.7
Copyright (c) 2008-2010 y-soft. All rights reserved
http://y-soft.org
ANALYZER: auCDtect: CD records authenticity detector, version 0.8.2
Copyright (c) 2004 Oleg Berngardt. All rights reserved.
Copyright (c) 2004 Alexander Djourik. All rights reserved.
FILE: Аркадий Хоралов - Давай попробуем вернуть.flac
  Size: 402641735 Hash: DA908525E4787C699EE2E37B96BA40BE Accuracy: -m0
  Conclusion: CDDA 100%
  Signature: 4DF0D26D88A5E1AA7752C0608FCF310CF19E1609

1985 - Бесконечность

Год издания: 2005
Издатель (лейбл): Студия Монолит
Номер по каталогу: МТ 711507-051-1
Продолжительность: 00:44:43
Трек лист:
01. Гавань моей любви
02. Бесконечность
03. Чужой телефон
04. Заброшенный лес
05. Вперёд, друзья!
06. Нам случай встретиться помог
07. Воскресенье
08. Без тебя
09. Риск
10. Дай мне посмотреть в глаза
11. Пусть исчезнут беды

Отчёт ЕАС&#58;

Exact Audio Copy V1.0 beta 3 from 29. August 2011
Отчёт EAC об извлечении, выполненном 10. апреля 2013, 1:21
Аркадий Хоралов / Бесконечность
Дисковод: TS8XDVDRTranscend Adapter: 2 ID: 0
Режим чтения : Достоверность
Использование точного потока : Да
Отключение кэша аудио : Да
Использование указателей C2 : Нет
Коррекция смещения при чтении : 6
Способность читать области Lead-in и Lead-out : Нет
Заполнение пропущенных сэмплов тишиной : Да
Удаление блоков с тишиной в начале и конце : Нет
При вычислениях CRC использовались нулевые сэмплы : Да
Интерфейс : Встроенный Win32-интерфейс для Win NT/2000
Выходной формат : Пользовательский кодировщик
Выбранный битрейт : 128 kBit/s
Качество : Высокий
Добавление ID3-тега : Нет
Утилита сжатия : C:\Program Files\Exact Audio Copy\FLAC\FLAC.EXE
Дополнительные параметры : -V -8 -T "Date=%year%" -T "Genre=%genre%" %source%
TOC извлечённого CD
Трек | Старт | Длительность | Начальный сектор | Конечный сектор
---------------------------------------------------------------------
1 | 0:00.00 | 3:01.73 | 0 | 13647
2 | 3:01.73 | 4:30.20 | 13648 | 33917
3 | 7:32.18 | 3:23.66 | 33918 | 49208
4 | 10:56.09 | 3:29.09 | 49209 | 64892
5 | 14:25.18 | 3:53.10 | 64893 | 82377
6 | 18:18.28 | 4:53.17 | 82378 | 104369
7 | 23:11.45 | 4:13.37 | 104370 | 123381
8 | 27:25.07 | 4:41.70 | 123382 | 144526
9 | 32:07.02 | 4:13.28 | 144527 | 163529
10 | 36:20.30 | 4:31.18 | 163530 | 183872
11 | 40:51.48 | 3:51.28 | 183873 | 201225
Характеристики диапазона извлечения и сообщения об ошибках
Выбранный диапазон
Имя файла C:\Documents and Settings\Пользователь\Мои документы\Раздачи на torrents.ru\Аркадий Хоралов - Бесконечность.wav
Пиковый уровень 96.8 %
Скорость извлечения 1.5 X
Качество диапазона 100.0 %
CRC теста 88BFD6F5
CRC копии 88BFD6F5
Копирование... OK
Ошибок не произошло
AccurateRip: сводка
Трек 1 отсутствует в базе данных
Трек 2 отсутствует в базе данных
Трек 3 отсутствует в базе данных
Трек 4 : извлечено точно (доверие 2) [40463AEC] (AR v1)
Трек 5 отсутствует в базе данных
Трек 6 отсутствует в базе данных
Трек 7 отсутствует в базе данных
Трек 8 отсутствует в базе данных
Трек 9 отсутствует в базе данных
Трек 10 отсутствует в базе данных
Трек 11 отсутствует в базе данных
1 трек(и) скопированы точно
10 трек(и) не содержатся в базе AccurateRip
Некоторые треки не прошли проверку на точность
Конец отчёта
==== Контрольная сумма отчёта D2734D6F1624F4C11CECB41E3959B01E4B88945479332FCA503896CD2C87B5BA ====

Отчёт auCDtect Task manager

-----------------------
DON'T MODIFY THIS FILE
-----------------------
PERFORMER: auCDtect Task Manager, ver. 1.5.1RC6 build 1.5.1.7
Copyright (c) 2008-2010 y-soft. All rights reserved
http://y-soft.org
ANALYZER: auCDtect: CD records authenticity detector, version 0.8.2
Copyright (c) 2004 Oleg Berngardt. All rights reserved.
Copyright (c) 2004 Alexander Djourik. All rights reserved.
FILE: Аркадий Хоралов - Бесконечность.flac
  Size: 326011314 Hash: 35F5001A4B675F1C15632E567550FDD9 Accuracy: -m0
  Conclusion: CDDA 99%
  Signature: ECB14266EF4609E7F2E592165FB34AF0E71706AC

1987-1988 - Странный мир

Год издания: 2005
Издатель (лейбл): Студия Монолит
Номер по каталогу: МТ 711507-053-1
Продолжительность: 00:49:13
Трек лист:
01. Лишний билет
02. Странный мир
03. Эдельвейс
04. Дождь прошёл
05. Новогодние игрушки
06. Скажи, зачем?
07. День и ночь
08. Музыка любви
09. Осень вновь пришла
10. Песня без слов

Отчёт ЕАС&#58;

Exact Audio Copy V1.0 beta 3 from 29. August 2011
Отчёт EAC об извлечении, выполненном 11. апреля 2013, 17:12
Аркадий Хоралов / Странный мир
Дисковод: TS8XDVDRTranscend Adapter: 1 ID: 0
Режим чтения : Достоверность
Использование точного потока : Да
Отключение кэша аудио : Да
Использование указателей C2 : Нет
Коррекция смещения при чтении : 6
Способность читать области Lead-in и Lead-out : Нет
Заполнение пропущенных сэмплов тишиной : Да
Удаление блоков с тишиной в начале и конце : Нет
При вычислениях CRC использовались нулевые сэмплы : Да
Интерфейс : Встроенный Win32-интерфейс для Win NT/2000
Выходной формат : Пользовательский кодировщик
Выбранный битрейт : 128 kBit/s
Качество : Высокий
Добавление ID3-тега : Нет
Утилита сжатия : C:\Program Files (x86)\Exact Audio Copy\Flac\flac.exe
Дополнительные параметры : -V -8 -T "Date=%year%" -T "Genre=%genre%" %source%
TOC извлечённого CD
Трек | Старт | Длительность | Начальный сектор | Конечный сектор
---------------------------------------------------------------------
1 | 0:00.00 | 4:32.02 | 0 | 20401
2 | 4:32.02 | 5:38.73 | 20402 | 45824
3 | 10:11.00 | 5:12.42 | 45825 | 69266
4 | 15:23.42 | 5:08.50 | 69267 | 92416
5 | 20:32.17 | 4:24.15 | 92417 | 112231
6 | 24:56.32 | 4:42.26 | 112232 | 133407
7 | 29:38.58 | 4:06.40 | 133408 | 151897
8 | 33:45.23 | 4:30.60 | 151898 | 172207
9 | 38:16.08 | 4:39.08 | 172208 | 193140
10 | 42:55.16 | 6:18.38 | 193141 | 221528
Характеристики диапазона извлечения и сообщения об ошибках
Выбранный диапазон
Имя файла C:\Users\Public\Аркадий Хоралов - Странный мир.wav
Пиковый уровень 98.8 %
Скорость извлечения 4.2 X
Качество диапазона 100.0 %
CRC теста BD025E50
CRC копии BD025E50
Копирование... OK
Ошибок не произошло
AccurateRip: сводка
Трек 1 : извлечено точно (доверие 1) [2F4E32DE] (AR v2)
Трек 2 : извлечено точно (доверие 1) [0BCDA34C] (AR v2)
Трек 3 : извлечено точно (доверие 1) [6F84CA6C] (AR v2)
Трек 4 : извлечено точно (доверие 1) [91DEA39C] (AR v2)
Трек 5 : извлечено точно (доверие 1) [0F285006] (AR v2)
Трек 6 : извлечено точно (доверие 1) [7FEFAE29] (AR v2)
Трек 7 : извлечено точно (доверие 1) [9C48893E] (AR v2)
Трек 8 : извлечено точно (доверие 1) [80B67424] (AR v2)
Трек 9 : извлечено точно (доверие 1) [D86F220F] (AR v2)
Трек 10 : извлечено точно (доверие 1) [48B933CF] (AR v2)
Все треки извлечены точно
Конец отчёта
==== Контрольная сумма отчёта B1CAF5942AB19CE1A324103C8FE10028A4C9F512C504D17DCCC9AC91DF43E056 ====

Отчёт auCDtect Task manager&#58;

-----------------------
DON'T MODIFY THIS FILE
-----------------------
PERFORMER: auCDtect Task Manager, ver. 1.5.1RC6 build 1.5.1.7
Copyright (c) 2008-2010 y-soft. All rights reserved
http://y-soft.org
ANALYZER: auCDtect: CD records authenticity detector, version 0.8.2
Copyright (c) 2004 Oleg Berngardt. All rights reserved.
Copyright (c) 2004 Alexander Djourik. All rights reserved.
FILE: Аркадий Хоралов - Странный мир.flac
  Size: 381744200 Hash: C98CA8A3CA268480D75185B8D95C8990 Accuracy: -m0
  Conclusion: CDDA 100%
  Signature: 7C9AD4715AB7BB6A9CE3AC0FA7FB6FF4F4D343F8

1992-1993 - Я позвоню

Год издания: 2005
Издатель (лейбл): Студия Монолит
Номер по каталогу: МТ 711507-055-1
Продолжительность: 00:48:32
Трек лист:
01. Я позвоню
02. А снег рисует
03. Где я и ты
04. Бархатный сезон
05. Мисс "Европа"
06. Ты
07. То ли дождь
08. Когда уходят люди
09. Кафе за углом
10. Распущенные волосы

Отчёт ЕАС&#58;

Exact Audio Copy V1.0 beta 3 from 29. August 2011
Отчёт EAC об извлечении, выполненном 11. апреля 2013, 1:56
Аркадий Хоралов / Я позвоню
Дисковод: TS8XDVDRTranscend Adapter: 1 ID: 0
Режим чтения : Достоверность
Использование точного потока : Да
Отключение кэша аудио : Да
Использование указателей C2 : Нет
Коррекция смещения при чтении : 6
Способность читать области Lead-in и Lead-out : Нет
Заполнение пропущенных сэмплов тишиной : Да
Удаление блоков с тишиной в начале и конце : Нет
При вычислениях CRC использовались нулевые сэмплы : Да
Интерфейс : Встроенный Win32-интерфейс для Win NT/2000
Выходной формат : Пользовательский кодировщик
Выбранный битрейт : 128 kBit/s
Качество : Высокий
Добавление ID3-тега : Нет
Утилита сжатия : C:\Program Files (x86)\Exact Audio Copy\Flac\flac.exe
Дополнительные параметры : -V -8 -T "Date=%year%" -T "Genre=%genre%" %source%
TOC извлечённого CD
Трек | Старт | Длительность | Начальный сектор | Конечный сектор
---------------------------------------------------------------------
1 | 0:00.00 | 3:57.35 | 0 | 17809
2 | 3:57.35 | 4:13.25 | 17810 | 36809
3 | 8:10.60 | 3:51.41 | 36810 | 54175
4 | 12:02.26 | 4:23.17 | 54176 | 73917
5 | 16:25.43 | 3:42.22 | 73918 | 90589
6 | 20:07.65 | 5:10.04 | 90590 | 113843
7 | 25:17.69 | 4:47.06 | 113844 | 135374
8 | 30:05.00 | 5:08.01 | 135375 | 158475
9 | 35:13.01 | 4:55.47 | 158476 | 180647
10 | 40:08.48 | 4:29.69 | 180648 | 200891
11 | 44:38.42 | 3:54.30 | 200892 | 218471
Характеристики диапазона извлечения и сообщения об ошибках
Выбранный диапазон
Имя файла C:\Users\Public\Аркадий Хоралов - Я позвоню.wav
Пиковый уровень 100.0 %
Скорость извлечения 4.1 X
Качество диапазона 99.9 %
CRC теста BEB3134C
CRC копии BEB3134C
Копирование... OK
Ошибок не произошло
AccurateRip: сводка
Трек 1 отсутствует в базе данных
Трек 2 отсутствует в базе данных
Трек 3 отсутствует в базе данных
Трек 4 отсутствует в базе данных
Трек 5 отсутствует в базе данных
Трек 6 отсутствует в базе данных
Трек 7 отсутствует в базе данных
Трек 8 отсутствует в базе данных
Трек 9 отсутствует в базе данных
Трек 10 отсутствует в базе данных
Трек 11 отсутствует в базе данных
Ни одного трека нет в базе AccurateRip
Конец отчёта
==== Контрольная сумма отчёта 470C44394355CA546C63BDB3664E6A2B0F2B187C6D84917FDB54D7EF6A087C1F ====

Отчёт auCDtect Task manager

-----------------------
DON'T MODIFY THIS FILE
-----------------------
PERFORMER: auCDtect Task Manager, ver. 1.5.1RC6 build 1.5.1.7
Copyright (c) 2008-2010 y-soft. All rights reserved
http://y-soft.org
ANALYZER: auCDtect: CD records authenticity detector, version 0.8.2
Copyright (c) 2004 Oleg Berngardt. All rights reserved.
Copyright (c) 2004 Alexander Djourik. All rights reserved.
FILE: Аркадий Хоралов - Я позвоню.flac
  Size: 399951804 Hash: 82E228D816C52B55E1DEF71533DAFD50 Accuracy: -m0
  Conclusion: CDDA 100%
  Signature: 2992313FCEFD155590E307B3137EE042AE8483C7

2000 - Я твой пленник

Год издания: 2005
Издатель (лейбл): Студия Монолит
Номер по каталогу: МТ 711507-057-1
Продолжительность: 00:54:51
Трек лист:
01. Я твой пленник
02. В чужом отеле
03. Заброшенный лес (ремикс)
04. Обреки меня на любовь
05. Новогодние игрушки (ремикс)
06. Мама
07. Людмила
08. Смотрю в глаза твои
09. Расскажи мне о любви
10. На воздушном шаре
11. Ты слушаешь
12. Не возвращайся
13. Медленный снегопад

Отчёт ЕАС&#58;

Exact Audio Copy V1.0 beta 3 from 29. August 2011
Отчёт EAC об извлечении, выполненном 11. апреля 2013, 18:22
Аркадий Хоралов / Я твой пленник
Дисковод: TS8XDVDRTranscend Adapter: 1 ID: 0
Режим чтения : Достоверность
Использование точного потока : Да
Отключение кэша аудио : Да
Использование указателей C2 : Нет
Коррекция смещения при чтении : 6
Способность читать области Lead-in и Lead-out : Нет
Заполнение пропущенных сэмплов тишиной : Да
Удаление блоков с тишиной в начале и конце : Нет
При вычислениях CRC использовались нулевые сэмплы : Да
Интерфейс : Встроенный Win32-интерфейс для Win NT/2000
Выходной формат : Пользовательский кодировщик
Выбранный битрейт : 128 kBit/s
Качество : Высокий
Добавление ID3-тега : Нет
Утилита сжатия : C:\Program Files (x86)\Exact Audio Copy\Flac\flac.exe
Дополнительные параметры : -V -8 -T "Date=%year%" -T "Genre=%genre%" %source%
TOC извлечённого CD
Трек | Старт | Длительность | Начальный сектор | Конечный сектор
---------------------------------------------------------------------
1 | 0:00.00 | 3:41.28 | 0 | 16602
2 | 3:41.28 | 4:10.44 | 16603 | 35396
3 | 7:51.72 | 3:41.18 | 35397 | 51989
4 | 11:33.15 | 4:57.30 | 51990 | 74294
5 | 16:30.45 | 3:42.70 | 74295 | 91014
6 | 20:13.40 | 4:15.05 | 91015 | 110144
7 | 24:28.45 | 4:46.58 | 110145 | 131652
8 | 29:15.28 | 3:34.27 | 131653 | 147729
9 | 32:49.55 | 4:37.54 | 147730 | 168558
10 | 37:27.34 | 3:49.03 | 168559 | 185736
11 | 41:16.37 | 5:14.07 | 185737 | 209293
12 | 46:30.44 | 4:14.19 | 209294 | 228362
13 | 50:44.63 | 4:06.74 | 228363 | 246886
Характеристики диапазона извлечения и сообщения об ошибках
Выбранный диапазон
Имя файла C:\Users\Public\Аркадий Хоралов - Я твой пленник.wav
Пиковый уровень 98.8 %
Скорость извлечения 4.3 X
Качество диапазона 100.0 %
CRC теста A77DF9D1
CRC копии A77DF9D1
Копирование... OK
Ошибок не произошло
AccurateRip: сводка
Трек 1 отсутствует в базе данных
Трек 2 отсутствует в базе данных
Трек 3 отсутствует в базе данных
Трек 4 отсутствует в базе данных
Трек 5 отсутствует в базе данных
Трек 6 отсутствует в базе данных
Трек 7 отсутствует в базе данных
Трек 8 отсутствует в базе данных
Трек 9 отсутствует в базе данных
Трек 10 отсутствует в базе данных
Трек 11 отсутствует в базе данных
Трек 12 отсутствует в базе данных
Трек 13 отсутствует в базе данных
Ни одного трека нет в базе AccurateRip
Конец отчёта
==== Контрольная сумма отчёта A8166F18D2979BF7B9DC80111C8A5715B8F821B6B3CAEFE182B6805A00471E78 ====

Отчёт auCDtect Task manager&#58;

-----------------------
DON'T MODIFY THIS FILE
-----------------------
PERFORMER: auCDtect Task Manager, ver. 1.5.1RC6 build 1.5.1.7
Copyright (c) 2008-2010 y-soft. All rights reserved
http://y-soft.org
ANALYZER: auCDtect: CD records authenticity detector, version 0.8.2
Copyright (c) 2004 Oleg Berngardt. All rights reserved.
Copyright (c) 2004 Alexander Djourik. All rights reserved.
FILE: Аркадий Хоралов - Я твой пленник.flac
  Size: 443632336 Hash: 5A3893D212AB0B7BFDDBD08FAC9C93A3 Accuracy: -m0
  Conclusion: CDDA 100%
  Signature: 20FA3DDB0ECCD809BA61AD512901771AFF58700F

2008 - Музыка любви

Год издания: 2008
Издатель (лейбл): КВАДРО-ДИСК
Номер по каталогу: KTL08-865
Продолжительность: 01:01:38
Трек лист:
01. Музыка любви
02. Недотрога
03. Говори мне
04. Где я и ты
05. Странный мир
06. Смотрю в глаза
07. Обреки меня на любовь
08. Людмила
09. Медленный снегопад
10. День и ночь
11. Ты слушаешь
12. Не возвращайся
13. Расскажи мне о любви
14. Когда уходят люди

Отчёт ЕАС&#58;

Exact Audio Copy V1.0 beta 3 from 29. August 2011
Отчёт EAC об извлечении, выполненном 11. апреля 2013, 19:17
Аркадий Хоралов / Музыка любви
Дисковод: TS8XDVDRTranscend Adapter: 1 ID: 0
Режим чтения : Достоверность
Использование точного потока : Да
Отключение кэша аудио : Да
Использование указателей C2 : Нет
Коррекция смещения при чтении : 6
Способность читать области Lead-in и Lead-out : Нет
Заполнение пропущенных сэмплов тишиной : Да
Удаление блоков с тишиной в начале и конце : Нет
При вычислениях CRC использовались нулевые сэмплы : Да
Интерфейс : Встроенный Win32-интерфейс для Win NT/2000
Выходной формат : Пользовательский кодировщик
Выбранный битрейт : 128 kBit/s
Качество : Высокий
Добавление ID3-тега : Нет
Утилита сжатия : C:\Program Files (x86)\Exact Audio Copy\Flac\flac.exe
Дополнительные параметры : -V -8 -T "Date=%year%" -T "Genre=%genre%" %source%
TOC извлечённого CD
Трек | Старт | Длительность | Начальный сектор | Конечный сектор
---------------------------------------------------------------------
1 | 0:00.00 | 4:30.58 | 0 | 20307
2 | 4:30.58 | 3:24.74 | 20308 | 35681
3 | 7:55.57 | 3:35.55 | 35682 | 51861
4 | 11:31.37 | 3:51.29 | 51862 | 69215
5 | 15:22.66 | 5:38.73 | 69216 | 94638
6 | 21:01.64 | 3:32.38 | 94639 | 110576
7 | 24:34.27 | 4:56.08 | 110577 | 132784
8 | 29:30.35 | 4:46.43 | 132785 | 154277
9 | 34:17.03 | 4:07.01 | 154278 | 172803
10 | 38:24.04 | 4:06.44 | 172804 | 191297
11 | 42:30.48 | 5:12.74 | 191298 | 214771
12 | 47:43.47 | 4:13.00 | 214772 | 233746
13 | 51:56.47 | 4:35.64 | 233747 | 254435
14 | 56:32.36 | 5:05.46 | 254436 | 277356
Характеристики диапазона извлечения и сообщения об ошибках
Выбранный диапазон
Имя файла C:\Users\Public\Аркадий Хоралов - Музыка любви.wav
Пиковый уровень 97.9 %
Скорость извлечения 4.8 X
Качество диапазона 100.0 %
CRC теста B9613B2C
CRC копии B9613B2C
Копирование... OK
Ошибок не произошло
AccurateRip: сводка
Трек 1 отсутствует в базе данных
Трек 2 отсутствует в базе данных
Трек 3 отсутствует в базе данных
Трек 4 отсутствует в базе данных
Трек 5 отсутствует в базе данных
Трек 6 отсутствует в базе данных
Трек 7 отсутствует в базе данных
Трек 8 отсутствует в базе данных
Трек 9 отсутствует в базе данных
Трек 10 отсутствует в базе данных
Трек 11 отсутствует в базе данных
Трек 12 отсутствует в базе данных
Трек 13 отсутствует в базе данных
Трек 14 отсутствует в базе данных
Ни одного трека нет в базе AccurateRip
Конец отчёта
==== Контрольная сумма отчёта EF2D2ECE6D3EA2590E28534C53DBFF1F47A8211D0E971CB0EF2A49E805C25AF7 ====

Отчёт auCDtect Task manager&#58;

-----------------------
DON'T MODIFY THIS FILE
-----------------------
PERFORMER: auCDtect Task Manager, ver. 1.5.1RC6 build 1.5.1.7
Copyright (c) 2008-2010 y-soft. All rights reserved
http://y-soft.org
ANALYZER: auCDtect: CD records authenticity detector, version 0.8.2
Copyright (c) 2004 Oleg Berngardt. All rights reserved.
Copyright (c) 2004 Alexander Djourik. All rights reserved.
FILE: Аркадий Хоралов - Музыка любви.flac
  Size: 498976757 Hash: D0449C2C5A8B673A927EA00A099F5289 Accuracy: -m0
  Conclusion: CDDA 100%
  Signature: A18D216A5B9B7E2330DD4BBC815A7A4B32B3A0FC

2008 - Я встречи ждал

Год издания: 2008
Издатель (лейбл): А.Хоралов
Продолжительность: 00:53:05
Трек лист:
01. Я встречи ждал...
02. Без тебя
03. Эдельвейс
04. Вот и всё
05. Я позвоню
06. Заброшенный лес
07. Ты одинока
08. Давай попробуем вернуть
09. С днём рождения, Наташенька!
10. В чужом отеле
11. Я твой пленник
12. Среди своих потерь...
13. Новогодние игрушки

Отчёт ЕАС&#58;

Exact Audio Copy V1.0 beta 3 from 29. August 2011
Отчёт EAC об извлечении, выполненном 11. апреля 2013, 21:53
Аркадий Хоралов / Я встречи ждал
Дисковод: TS8XDVDRTranscend Adapter: 2 ID: 0
Режим чтения : Достоверность
Использование точного потока : Да
Отключение кэша аудио : Да
Использование указателей C2 : Нет
Коррекция смещения при чтении : 6
Способность читать области Lead-in и Lead-out : Нет
Заполнение пропущенных сэмплов тишиной : Да
Удаление блоков с тишиной в начале и конце : Нет
При вычислениях CRC использовались нулевые сэмплы : Да
Интерфейс : Встроенный Win32-интерфейс для Win NT/2000
Выходной формат : Пользовательский кодировщик
Выбранный битрейт : 128 kBit/s
Качество : Высокий
Добавление ID3-тега : Нет
Утилита сжатия : C:\Program Files\Exact Audio Copy\FLAC\FLAC.EXE
Дополнительные параметры : -V -8 -T "Date=%year%" -T "Genre=%genre%" %source%
TOC извлечённого CD
Трек | Старт | Длительность | Начальный сектор | Конечный сектор
---------------------------------------------------------------------
1 | 0:00.00 | 4:51.56 | 0 | 21880
2 | 4:51.56 | 3:56.73 | 21881 | 39653
3 | 8:48.54 | 4:33.72 | 39654 | 60200
4 | 13:22.51 | 4:47.46 | 60201 | 81771
5 | 18:10.22 | 3:27.46 | 81772 | 97342
6 | 21:37.68 | 3:57.38 | 97343 | 115155
7 | 25:35.31 | 3:59.05 | 115156 | 133085
8 | 29:34.36 | 4:35.72 | 133086 | 153782
9 | 34:10.33 | 4:08.38 | 153783 | 172420
10 | 38:18.71 | 4:09.42 | 172421 | 191137
11 | 42:28.38 | 3:35.59 | 191138 | 207321
12 | 46:04.22 | 3:24.11 | 207322 | 222632
13 | 49:28.33 | 3:36.52 | 222633 | 238884
Характеристики диапазона извлечения и сообщения об ошибках
Выбранный диапазон
Имя файла C:\Documents and Settings\Пользователь\Мои документы\Раздачи на torrents.ru\Аркадий Хоралов - Я встречи ждал.wav
Пиковый уровень 100.0 %
Скорость извлечения 1.6 X
Качество диапазона 100.0 %
CRC теста BC8CEF5E
CRC копии BC8CEF5E
Копирование... OK
Ошибок не произошло
AccurateRip: сводка
Трек 1 отсутствует в базе данных
Трек 2 отсутствует в базе данных
Трек 3 отсутствует в базе данных
Трек 4 отсутствует в базе данных
Трек 5 отсутствует в базе данных
Трек 6 отсутствует в базе данных
Трек 7 отсутствует в базе данных
Трек 8 отсутствует в базе данных
Трек 9 отсутствует в базе данных
Трек 10 отсутствует в базе данных
Трек 11 отсутствует в базе данных
Трек 12 отсутствует в базе данных
Трек 13 отсутствует в базе данных
Ни одного трека нет в базе AccurateRip
Конец отчёта
==== Контрольная сумма отчёта F9DB2CD375031630B12DE91DAC958FB00560941D999802129076ECCF8E62C37E ====

Отчёт auCDtect Task manager&#58;

DON'T MODIFY THIS FILE
-----------------------
PERFORMER: auCDtect Task Manager, ver. 1.5.1RC6 build 1.5.1.7
Copyright (c) 2008-2010 y-soft. All rights reserved
http://y-soft.org
ANALYZER: auCDtect: CD records authenticity detector, version 0.8.2
Copyright (c) 2004 Oleg Berngardt. All rights reserved.
Copyright (c) 2004 Alexander Djourik. All rights reserved.
FILE: Аркадий Хоралов - Я встречи ждал.flac
  Size: 388884642 Hash: 58DD85A8E7C421C1F4A0C3A1A25E9D1D Accuracy: -m0
  Conclusion: CDDA 100%
  Signature: 2E53A9F3755D5B8B81863EC3D6AEFD8025050C30
-
Яндекс.Метрика
Рейтинг@Mail.ru