Люблю твою жену / The Right Kind of Wrong (Джеримайя С. Чечик / Jeremiah S. Chechik) [2013 г., мелодрама, комедия, HDRip] Dub (Лицензия)

 

Создавать темы 21-Дек-2014 17:50

-Люблю твою жену / The Right Kind of Wrong- Производство: Канада / Serendipity Point Films, Nomadic Pictures
Год выпуска: 2013 г.
Жанр: мелодрама, комедия
Продолжительность: 01:37:10
Мировая премьера: 12 сентября 2013
Российская премьера: 21 августа 2014, «Наше Кино»
Релиз на DVD: 9 декабря 2014, «CD Land»
Перевод: Профессиональный (полное дублирование) [Лицензия]-Режиссер: Джеримайя С. Чечик / Jeremiah S. Chechik
В ролях: Райан Квантен, Сара Каннинг, Райан МакПартлин, Кристен Хагер, Джеймс А. Вудс, Рауль Банеджа, Дженнифер Бэкстер, Уилл Сассо, Кэтрин О’Хара, Мария Менунос-Описание: Это история о писателе Лео, который вынужден мыть посуду, чтобы свести концы с концами. Помимо этого его бывшая жена выставляет все его многочисленные недостатки на суд общественности в своем супер-знаменитом блоге «Почему ты мудак». Но вот Лео встречает Коллет — девушку своей мечты. Теперь он сделает все, чтобы завоевать ее и заставит весь мир понять, как все заблуждались на его счет.- -Качество видео: HDRip
Контейнер: AVI
Видео кодек: XviD
Аудио кодек: AC3
Видео: 720x304 (2.37:1), 23.976 fps, XviD build 73 ~1688 kbps avg, 0.32 bit/pixel
Аудио: 48 kHz, AC3 Dolby Digital, 3/2 (L,C,R,l,r) + LFE ch, ~448 kbps
Cубтитры: отсутствуют

Media Info

General
Complete name : D:\Lublu.tvoiu.zhenu.2013.D.HDRip.1400MB.avi
Format : AVI
Format/Info : Audio Video Interleave
Format profile : OpenDML
Format settings : rec
File size : 1.45 GiB
Duration : 1h 37mn
Overall bit rate : 2 143 Kbps
Writing application : AVI-Mux GUI 1.17.8.3, Feb 16 201019:42:50
Video
ID : 0
Format : MPEG-4 Visual
Format profile : Advanced [email protected]
Format settings, BVOP : 1
Format settings, QPel : No
Format settings, GMC : No warppoints
Format settings, Matrix : Custom
Codec ID : XVID
Codec ID/Hint : XviD
Duration : 1h 37mn
Bit rate : 1 690 Kbps
Width : 720 pixels
Height : 304 pixels
Display aspect ratio : 2.35:1
Frame rate : 23.976 fps
Color space : YUV
Chroma subsampling : 4:2:0
Bit depth : 8 bits
Scan type : Progressive
Compression mode : Lossy
Bits/(Pixel*Frame) : 0.322
Stream size : 1.15 GiB (79%)
Writing library : XviD 73
Audio
ID : 1
Format : AC-3
Format/Info : Audio Coding 3
Mode extension : CM (complete main)
Format settings, Endianness : Big
Codec ID : 2000
Duration : 1h 37mn
Bit rate mode : Constant
Bit rate : 448 Kbps
Channel(s) : 6 channels
Channel positions : Front: L C R, Side: L R, LFE
Sampling rate : 48.0 KHz
Bit depth : 16 bits
Compression mode : Lossy
Stream size : 311 MiB (21%)
Alignment : Aligned on interleaves
Interleave, duration : 64 ms (1.53 video frames)
Interleave, preload duratio : 192 ms

Скриншоты

Яндекс.Метрика
Рейтинг@Mail.ru