Пристегните ремни / Allacciate le cinture (Ферзан Озпетек / Ferzan Ozpetek) [2014 г., мелодрама, HDRip] Dub (Лицензия)

 

Создавать темы 21-Дек-2014 17:49

-Пристегните ремни / Allacciate le cinture- Производство: Италия / R&C Produzioni, Faros Film, Rai Cinema
Год выпуска: 2014 г.
Жанр: мелодрама
Продолжительность: 01:50:53
Мировая премьера: 6 марта 2014
Российская премьера: 2 октября 2014, «Cinema Prestige»
Перевод: Профессиональный (полное дублирование) [Лицензия]-Режиссер: Ферзан Озпетек / Ferzan Ozpetek
В ролях: Касия Смутняк, Франческо Арка, Филиппо Шиккьятано, Каролина Крешентини, Паола Миначчони, Елена София Риччи, Франческо Шианна, Карла Синьорис, Луиза Раньери, Джулия Микелини-Описание: Елена и Антонио точно не созданы друг для друга. Она — интеллигентная девушка из хорошей семьи, он — чувственное животное, хамоватый неграмотный механик. Они абсолютно разные — по характеру, жизненным приоритетам, отношению к миру. И, тем не менее, чувствуют непреодолимое взаимное притяжение, хотя всячески пытаются с ним справиться. Не только потому, что между ними нет ничего общего, но и по более важным причинам: у Елены роман с архитектором Джорджио, а Антонио встречается с ее лучшей подругой Сильвией. Однако страсть сильнее — и молодые люди женятся. Спустя несколько лет Елена понимает, что, возможно, совершила трагическую ошибку…- -Качество видео: HDRip
Контейнер: AVI
Видео кодек: XviD
Аудио кодек: AC3
Видео: 720x304 (2.37:1), 23.976 fps, XviD build 50 ~1422 kbps avg, 0.27 bit/pixel
Аудио: 48 kHz, AC3 Dolby Digital, 3/2 (L,C,R,l,r) + LFE ch, ~448 kbps
Cубтитры: отсутствуют

Media Info

General
Complete name : D:\Pristegnite.remni.2014.D.HDRip.avi
Format : AVI
Format/Info : Audio Video Interleave
File size : 1.46 GiB
Duration : 1h 50mn
Overall bit rate : 1 880 Kbps
Video
ID : 0
Format : MPEG-4 Visual
Format profile : Advanced [email protected]
Format settings, BVOP : 4
Format settings, QPel : No
Format settings, GMC : No warppoints
Format settings, Matrix : Default (MPEG)
Codec ID : XVID
Codec ID/Hint : XviD
Duration : 1h 50mn
Bit rate : 1 423 Kbps
Width : 720 pixels
Height : 304 pixels
Display aspect ratio : 2.35:1
Frame rate : 23.976 fps
Color space : YUV
Chroma subsampling : 4:2:0
Bit depth : 8 bits
Scan type : Progressive
Compression mode : Lossy
Bits/(Pixel*Frame) : 0.271
Stream size : 1.10 GiB (76%)
Writing library : XviD 1.2.1 (UTC 2008-12-04)
Audio
ID : 1
Format : AC-3
Format/Info : Audio Coding 3
Mode extension : CM (complete main)
Format settings, Endianness : Big
Codec ID : 2000
Duration : 1h 50mn
Bit rate mode : Constant
Bit rate : 448 Kbps
Channel(s) : 6 channels
Channel positions : Front: L C R, Side: L R, LFE
Sampling rate : 48.0 KHz
Bit depth : 16 bits
Compression mode : Lossy
Stream size : 355 MiB (24%)
Alignment : Aligned on interleaves
Interleave, duration : 42 ms (1.00 video frame)
Interleave, preload duratio : 512 ms

Скриншоты

Яндекс.Метрика
Рейтинг@Mail.ru