Сквозь горизонт / Event Horizon (Пол В.С. Андерсон / Paul W.S. Anderson) [1997 г., ужасы, фантастика, BDRip, 720р] MVO (Superbit) + DVO (Tycoon, Гланц и Королева) + AVO (Гаврилов, Живов, Горчаков, Визгунов, Неизвестный) + Sub (Rus, Eng)

 

Создавать темы 21-Дек-2014 17:48

-Сквозь горизонт / Event Horizon-- Год выпуска: 1997
Производство: США, Великобритания
Жанр: ужасы, фантастика
Продолжительность: 1:35:57-Перевод 1: Профессиональный (многоголосый закадровый) Superbit
Перевод 2: Профессиональный (двухголосый закадровый) Tycoon
Перевод 3: Профессиональный (двухголосый закадровый) Гланц и королева
Перевод 4: Авторский (одноголосый, закадровый) Гаврилов
Перевод 5: Авторский (одноголосый, закадровый) Живов
Перевод 6: Авторский (одноголосый, закадровый) Горчаков
Перевод 7: Авторский (одноголосый, закадровый) Визгунов
Перевод 8: Любительский (одноголосый, закадровый) Неизвестный-Субтитры: Русские (Киномания, Тайкун), Английские
Режиссер: Пол В.С. Андерсон / Paul W.S. Anderson
В ролях: Лоренс Фишбёрн, Сэм Нил, Кэтлин Куинлен, Джоэли Ричардсон, Ричард Т. Джонс, Джек Ноузуорти, Джейсон Айзекс, Шон Пертуи, Питер Маринкер, Холли Чэнт--Описание: 2047 год. Спасательный космический корабль послан к границе Солнечной системы с целью выяснить, что произошло с экипажем первого звездолета, созданного для путешествий со сверхсветовой скоростью и бесследно исчезнувшего при первом же полете. Внезапно появившийся из ниоткуда, он был обнаружен возле далекой планеты Нептун.-- -
Качество видео: BDRip, 720р
Контейнер: MKV
Видео кодек: x.264
Аудио кодек: AC3
Видео: 1280x544, 23.976fps, ~4 811 kbps, 0.288 bit/pixel
Аудио #1: 48 kHz, AC3 Dolby Digital, 3/2 (L,C,R,l,r) + LFE ch, ~448 kbps - Superbit
Аудио #2: 48 kHz, AC3 Dolby Digital, 3/2 (L,C,R,l,r) + LFE ch, ~448 kbps - Tycoon
Аудио #3: 48 kHz, AC3 Dolby Digital, 3/2 (L,C,R,l,r) + LFE ch, ~448 kbps - Гланц и Королева
Аудио #4: 48 kHz, AC3 Dolby Digital, 3/2 (L,C,R,l,r) + LFE ch, ~448 kbps - Гаврилов
Аудио #5: 48 kHz, AC3 Dolby Digital, 3/2 (L,C,R,l,r) + LFE ch, ~448 kbps - Живов
Аудио #6: 48 kHz, AC3 Dolby Digital, 3/2 (L,C,R,l,r) + LFE ch, ~448 kbps - Горчаков
Аудио #7: 48 kHz, AC3 Dolby Digital, 3/2 (L,C,R,l,r) + LFE ch, ~448 kbps - Визгунов
Аудио #8: 48 kHz, AC3 Dolby Digital, 2/0 (L,R) ch, ~192 kbps - Неизвестный
Формат субтитров: Softsub (SRT)

Доп. информация

Автор рипа:
За дорогу Горчакова спасибо budulai-8,
за дорогу Визгунова спасибо 52246
За дорогу с неизвестным спасибо DeASS
За остальные дороги и исходник огромное спасибо MyxAmoP
За перевод Гаврилова большое спасибо пользователям форумов
hdtracker.org: _MyxAmoP_; Chistobaev; Xerman13; dunhill200; ZeRoNe; Pain_70; Role; kinobbk; Danil6300; Brown15; Denis1980; Dr. Destructo; Loki; shtift; Krasnovv; Отон; rydanes
и Е-180: DeASS; Gross1978; kondratzx; luka69; foxlight; saenwert; Andrey_Tula; michael_p2004; idalgo; kontr; dir; Werewolf77; Wolf_Larsen; Диммон; carnivale; Skoped; chontvari; motel; uchitel538

лог х.264

x264 [info]: frame I:1068 Avg QP:16.33 size:136659
x264 [info]: frame P:28629 Avg QP:20.07 size: 51356
x264 [info]: frame B:108335 Avg QP:22.55 size: 18113
x264 [info]: consecutive B-frames: 3.2% 2.7% 5.2% 11.2% 13.7% 42.2% 8.7% 2.9% 5.7% 4.5%
x264 [info]: mb I I16..4: 14.3% 68.9% 16.9%
x264 [info]: mb P I16..4: 1.0% 14.6% 1.9% P16..4: 27.1% 29.9% 11.5% 3.0% 0.5% skip:10.5%
x264 [info]: mb B I16..4: 0.1% 2.5% 0.2% B16..8: 38.2% 17.0% 3.3% direct: 7.4% skip:31.4% L0:45.3% L1:42.1% BI:12.6%
x264 [info]: 8x8 transform intra:83.6% inter:54.5%
x264 [info]: coded y,uvDC,uvAC intra: 94.8% 82.4% 56.0% inter: 32.0% 25.8% 6.7%
x264 [info]: i16 v,h,dc,p: 30% 20% 12% 37%
x264 [info]: i8 v,h,dc,ddl,ddr,vr,hd,vl,hu: 10% 7% 10% 10% 14% 13% 12% 12% 12%
x264 [info]: i4 v,h,dc,ddl,ddr,vr,hd,vl,hu: 10% 10% 6% 9% 15% 13% 13% 11% 13%
x264 [info]: i8c dc,h,v,p: 41% 23% 18% 18%
x264 [info]: Weighted P-Frames: Y:12.0% UV:6.5%
x264 [info]: ref P L0: 36.7% 9.8% 18.9% 7.6% 7.0% 4.6% 4.5% 2.3% 2.5% 1.9% 2.0% 1.7% 0.5% 0.0%
x264 [info]: ref B L0: 64.2% 14.3% 7.4% 4.1% 2.8% 2.4% 1.8% 1.2% 1.0% 0.6% 0.2%
x264 [info]: ref B L1: 90.7% 9.3%
x264 [info]: kb/s:4972.61
x264 [total]: encoded 138032 frames, 1.43 fps, 4972.61 kb/s

Media Info

Общее
Уникальный идентификатор : 213194848219438973023319016989353438109 (0xA063D58F47094A8C921E03FA15D5EB9D)
Полное имя : G:\фильмы HD\Горизонт событий (Event Horizon, 1997, BDRip, 720p) pm-2p2--Gavrilov-Jivov-Gorchakov-Vizgunov-L1.mkv
Формат : Matroska
Версия формата : Version 2
Размер файла : 5,57 Гбайт
Продолжительность : 1 ч. 35 м.
Общий поток : 8304 Кбит/сек
Название фильма : rip by Gross
Дата кодирования : UTC 2014-11-27 18:40:49
Программа кодирования : mkvmerge v4.7.0 ('Just Like You Imagined') сборка от Apr 21 2011 01:13:14
Библиотека кодирования : libebml v1.2.0 + libmatroska v1.1.0
Видео
Идентификатор : 1
Формат : AVC
Формат/Информация : Advanced Video Codec
Профиль формата : [email protected]
Параметр CABAC формата : Да
Параметр ReFrames формата : 12 кадров
Идентификатор кодека : V_MPEG4/ISO/AVC
Продолжительность : 1 ч. 35 м.
Битрейт : 4811 Кбит/сек
Ширина : 1280 пикселей
Высота : 544 пикселя
Соотношение сторон : 2,35:1
Режим частоты кадров : Постоянный
Частота кадров : 23,976 кадра/сек
Цветовое пространство : YUV
Субдискретизация насыщенности : 4:2:0
Битовая глубина : 8 бит
Тип развёртки : Прогрессивная
Бит/(Пиксели*Кадры) : 0.288
Размер потока : 3,22 Гбайт (58%)
Библиотека кодирования : x264 core 130 r2273 b3065e6
Настройки программы : cabac=1 / ref=12 / deblock=1:-2:-1 / analyse=0x3:0x133 / me=umh / subme=11 / psy=1 / psy_rd=1.05:0.15 / mixed_ref=1 / me_range=32 / chroma_me=1 / trellis=2 / 8x8dct=1 / cqm=0 / deadzone=21,11 / fast_pskip=1 / chroma_qp_offset=-3 / threads=2 / lookahead_threads=2 / sliced_threads=0 / nr=0 / decimate=0 / interlaced=0 / bluray_compat=0 / constrained_intra=0 / bframes=9 / b_pyramid=2 / b_adapt=2 / b_bias=0 / direct=1 / weightb=1 / open_gop=0 / weightp=2 / keyint=250 / keyint_min=23 / scenecut=40 / intra_refresh=0 / rc_lookahead=40 / rc=crf / mbtree=1 / crf=16.5 / qcomp=0.60 / qpmin=0 / qpmax=69 / qpstep=4 / ip_ratio=1.40 / aq=1:0.00
Язык : English
Default : Да
Forced : Нет
Аудио #1
Идентификатор : 2
Формат : AC-3
Формат/Информация : Audio Coding 3
Расширение режима : CM (complete main)
Параметр Endianness формата : Big
Идентификатор кодека : A_AC3
Продолжительность : 1 ч. 35 м.
Вид битрейта : Постоянный
Битрейт : 448 Кбит/сек
Каналы : 6 каналов
Расположение каналов : Front: L C R, Side: L R, LFE
Частота : 48,0 КГц
Битовая глубина : 16 бит
Метод сжатия : С потерями
Размер потока : 307 Мбайт (5%)
Заголовок : pm (Superbit)
Язык : Russian
Default : Да
Forced : Да
Аудио #2
Идентификатор : 3
Формат : AC-3
Формат/Информация : Audio Coding 3
Расширение режима : CM (complete main)
Параметр Endianness формата : Big
Идентификатор кодека : A_AC3
Продолжительность : 1 ч. 35 м.
Вид битрейта : Постоянный
Битрейт : 448 Кбит/сек
Каналы : 6 каналов
Расположение каналов : Front: L C R, Side: L R, LFE
Частота : 48,0 КГц
Битовая глубина : 16 бит
Метод сжатия : С потерями
Размер потока : 307 Мбайт (5%)
Заголовок : p2 (Tycoon)
Язык : Russian
Default : Нет
Forced : Нет
Аудио #3
Идентификатор : 4
Формат : AC-3
Формат/Информация : Audio Coding 3
Расширение режима : CM (complete main)
Параметр Endianness формата : Big
Идентификатор кодека : A_AC3
Продолжительность : 1 ч. 35 м.
Вид битрейта : Постоянный
Битрейт : 448 Кбит/сек
Каналы : 6 каналов
Расположение каналов : Front: L C R, Side: L R, LFE
Частота : 48,0 КГц
Битовая глубина : 16 бит
Метод сжатия : С потерями
Размер потока : 307 Мбайт (5%)
Заголовок : p2 (Glanz i Korileva)
Язык : Russian
Default : Нет
Forced : Нет
Аудио #4
Идентификатор : 5
Формат : AC-3
Формат/Информация : Audio Coding 3
Расширение режима : CM (complete main)
Параметр Endianness формата : Big
Идентификатор кодека : A_AC3
Продолжительность : 1 ч. 35 м.
Вид битрейта : Постоянный
Битрейт : 448 Кбит/сек
Каналы : 6 каналов
Расположение каналов : Front: L C R, Side: L R, LFE
Частота : 48,0 КГц
Битовая глубина : 16 бит
Метод сжатия : С потерями
Размер потока : 307 Мбайт (5%)
Заголовок : A1 (Gavrilov)
Язык : Russian
Default : Нет
Forced : Нет
Аудио #5
Идентификатор : 6
Формат : AC-3
Формат/Информация : Audio Coding 3
Расширение режима : CM (complete main)
Параметр Endianness формата : Big
Идентификатор кодека : A_AC3
Продолжительность : 1 ч. 35 м.
Вид битрейта : Постоянный
Битрейт : 448 Кбит/сек
Каналы : 6 каналов
Расположение каналов : Front: L C R, Side: L R, LFE
Частота : 48,0 КГц
Битовая глубина : 16 бит
Метод сжатия : С потерями
Размер потока : 307 Мбайт (5%)
Заголовок : A1 (Jivov)
Язык : Russian
Default : Нет
Forced : Нет
Аудио #6
Идентификатор : 7
Формат : AC-3
Формат/Информация : Audio Coding 3
Расширение режима : CM (complete main)
Параметр Endianness формата : Big
Идентификатор кодека : A_AC3
Продолжительность : 1 ч. 35 м.
Вид битрейта : Постоянный
Битрейт : 448 Кбит/сек
Каналы : 6 каналов
Расположение каналов : Front: L C R, Side: L R, LFE
Частота : 48,0 КГц
Битовая глубина : 16 бит
Метод сжатия : С потерями
Размер потока : 307 Мбайт (5%)
Заголовок : A1 (Gorchakov)
Язык : Russian
Default : Нет
Forced : Нет
Аудио #7
Идентификатор : 8
Формат : AC-3
Формат/Информация : Audio Coding 3
Расширение режима : CM (complete main)
Параметр Endianness формата : Big
Идентификатор кодека : A_AC3
Продолжительность : 1 ч. 35 м.
Вид битрейта : Постоянный
Битрейт : 448 Кбит/сек
Каналы : 6 каналов
Расположение каналов : Front: L C R, Side: L R, LFE
Частота : 48,0 КГц
Битовая глубина : 16 бит
Метод сжатия : С потерями
Размер потока : 307 Мбайт (5%)
Заголовок : A1 (Vizgunov)
Язык : Russian
Default : Нет
Forced : Нет
Аудио #8
Идентификатор : 9
Формат : AC-3
Формат/Информация : Audio Coding 3
Расширение режима : CM (complete main)
Параметр Endianness формата : Big
Идентификатор кодека : A_AC3
Продолжительность : 1 ч. 35 м.
Вид битрейта : Постоянный
Битрейт : 192 Кбит/сек
Каналы : 2 канала
Расположение каналов : Front: L R
Частота : 48,0 КГц
Битовая глубина : 16 бит
Метод сжатия : С потерями
Размер потока : 132 Мбайт (2%)
Заголовок : L1 (Unknoun)
Язык : Russian
Default : Нет
Forced : Нет
Текст #1
Идентификатор : 10
Формат : UTF-8
Идентификатор кодека : S_TEXT/UTF8
Идентификатор кодека/Информация : UTF-8 Plain Text
Заголовок : Киномания
Язык : Russian
Default : Нет
Forced : Нет
Текст #2
Идентификатор : 11
Формат : UTF-8
Идентификатор кодека : S_TEXT/UTF8
Идентификатор кодека/Информация : UTF-8 Plain Text
Заголовок : Tycoon
Язык : Russian
Default : Нет
Forced : Нет
Текст #3
Идентификатор : 12
Формат : UTF-8
Идентификатор кодека : S_TEXT/UTF8
Идентификатор кодека/Информация : UTF-8 Plain Text
Язык : English
Default : Нет
Forced : Нет

Скриншоты

- -
Яндекс.Метрика
Рейтинг@Mail.ru