[ Сегодня на трекере фрилич! Идет свободное скачивание без начисления Download ]

Горько! 2 (2014) WEBRip [H.264/1080p-LQ]

 

Создавать темы 21-Дек-2014 06:14

-Горько! 2 (2014) WEBRip [H.264/1080p-LQ]--«Будем жить»-- Год выпуска: 2014
Производство: Россия | Базелевс Продакшн, Кинокомпания «Lunapark»
Жанр: Комедия, приключения
Режиссер: Жора Крыжовников
Актеры: Сергей Светлаков, Юлия Александрова, Егор Корешков, Ян Цапник, Елена Валюшкина, Василий Кортуков, Юлия Стадник, Сергей Лавыгин, Александр Робак, Александр Паль
Описание фильма:
В надежде сорвать большой куш Наташин отчим идет на финансовую авантюру, чем подставляет своих партнеров по бизнесу. Без лишних слов те устраивают на него покушение. Вся семья скорбит по Борису Ивановичу… а он в гробу все это видел. Ему бы три дня пролежать и похороны пережить, а там родные откопают и можно спать спокойно. И все идет по плану уцелевшего отчима, пока проститься с ним не приезжает боевой товарищ. Рубаха-парень Витька Каравай мгновенно покоряет всю семью, перетягивая общее внимание на себя. Задетый за живое, покойник заставляет родных устроить роскошные поминки с участием Светлакова…
Перевод: Не требуется (русский)
Субтитры: Отсутствуют

Дата мировой премьеры: 23 октября 2014
Дата российской премьеры: 23 октября 2014, «Bazelevs Distribution»
Продолжительность: 01:36:21
Качество видео: WEBRip 1080p-LQ
Видеокодек: MPEG-4 AVC/H.264
Битрейт видео: 4000 kb/s
Размер кадра: 1912x1072
Аудио: AC3, 2/0 192 kb/s
Сэмпл: Скачать

MediaInfo:

Общее
Уникальный идентификатор                 : 202242395885167303969207525297072363545 (0x982677F7DF649D3AAABB2E7665CBD819)
Полное имя                               : Gorko.2.2014.O.WEB-DL.1080p.mkv
Формат                                   : Matroska
Версия формата                           : Version 4 / Version 2
Размер файла                             : 2,82 Гбайт
Продолжительность                        : 1 ч. 36 м.
Общий поток                              : 4192 Кбит/сек
Дата кодирования                         : UTC 2014-11-28 14:23:25
Программа кодирования                    : mkvmerge v6.9.1 ('Blue Panther') 64bit built on Apr 18 2014 18:23:38
Библиотека кодирования                   : libebml v1.3.0 + libmatroska v1.4.1
Видео
Идентификатор                            : 1
Формат                                   : AVC
Формат/Информация                        : Advanced Video Codec
Профиль формата                          : [url=mailto:[email protected]][email protected][/url]
Параметр CABAC формата                   : Да
Параметр ReFrames формата                : 3 кадра
Идентификатор кодека                     : V_MPEG4/ISO/AVC
Продолжительность                        : 1 ч. 36 м.
Битрейт                                  : 4000 Кбит/сек
Ширина                                   : 1912 пикселей
Высота                                   : 1072 пикселя
Соотношение сторон                       : 16:9
Режим частоты кадров                     : Постоянный
Частота кадров                           : 24,000 кадра/сек
Цветовое пространство                    : YUV
Субдискретизация насыщенности            : 4:2:0
Битовая глубина                          : 8 бит
Тип развёртки                            : Прогрессивная
Бит/(Пиксели*Кадры)                      : 0.081
Размер потока                            : 2,64 Гбайт (93%)
Библиотека кодирования                   : x264 core 142 r2389 956c8d8
Настройки программы                      : cabac=1 / ref=3 / deblock=1:0:0 / analyse=0x3:0x133 / me=umh / subme=7 / psy=1 / psy_rd=1.00:0.00 / mixed_ref=1 / me_range=32 / chroma_me=1 / trellis=2 / 8x8dct=1 / cqm=0 / deadzone=21,11 / fast_pskip=1 / chroma_qp_offset=-2 / threads=12 / lookahead_threads=2 / sliced_threads=0 / nr=0 / decimate=1 / interlaced=0 / bluray_compat=0 / constrained_intra=0 / bframes=0 / weightp=0 / keyint=72 / keyint_min=25 / scenecut=40 / intra_refresh=0 / rc_lookahead=50 / rc=2pass / mbtree=0 / bitrate=4000 / ratetol=1.0 / qcomp=0.20 / qpmin=10 / qpmax=51 / qpstep=4 / cplxblur=20.0 / qblur=0.5 / vbv_maxrate=5000 / vbv_bufsize=5000 / nal_hrd=none / filler=0 / ip_ratio=1.40 / aq=1:1.00
Default                                  : Да
Forced                                   : Нет
Основные цвета                           : BT.709
Характеристики трансфера                 : BT.709
Коэффициенты матрицы                     : BT.709
Аудио
Идентификатор                            : 2
Формат                                   : AC-3
Формат/Информация                        : Audio Coding 3
Расширение режима                        : CM (complete main)
Параметр Endianness формата              : Big
Идентификатор кодека                     : A_AC3
Продолжительность                        : 1 ч. 36 м.
Вид битрейта                             : Постоянный
Битрейт                                  : 192 Кбит/сек
Каналы                                   : 2 канала
Расположение каналов                     : Front: L R
Частота                                  : 44,1 КГц
Битовая глубина                          : 16 бит
Метод сжатия                             : С потерями
Размер потока                            : 132 Мбайт (5%)
Default                                  : Да
Forced                                   : Нет
Скриншоты:
--Время раздачи: 24/7 (до 10 скачавших)
Яндекс.Метрика
Рейтинг@Mail.ru