Газгольдер (2014) WEBRip

 

Создавать темы 21-Дек-2014 05:30

-Газгольдер (2014) WEBRip- Год выпуска: 2014
Производство: Россия
Жанр: Криминал
Режиссер: Иван Курский
Продюсер: Иван Курский, Елена Быкова, Вадик QП
Актеры: Баста, Вадик QП, Олег Груз, Виталий Буслаев, Григорий Зельтсер, Михаил Скачков, Екатерина Бестужева, Юрий Рейнеке, ГУФ, Айза Долматова
Описание фильма:
У Басты и его друзей произошел серьезный конфликт с могущественным кланом силовиков. Ребятам предстоит найти выход из сложившейся ситуации, включив всю мощь творческой энергии.
Перевод: Не требуется (русский)
Субтитры: Отсутствуют

Возраст: 16+
Дата мировой премьеры: 24 апреля 2014
Дата российской премьеры: 24 апреля 2014, «DreamTeam»
Продолжительность: 02:03:40
Качество видео: WEBRip
Видеокодек: XviD
Битрейт видео: 1481 kb/s
Размер кадра: 720x304
Аудиокодек: AC3 2.0
Битрейт аудио: 192 kb/s

MI

Общее
Полное имя                               : D:\Раздачи\Газгольдер.2014.WEBRip.NNM-CLUB.avi
Формат                                   : AVI
Формат/Информация                        : Audio Video Interleave
Размер файла                             : 1,45 Гбайт
Продолжительность                        : 2 ч. 3 м.
Общий поток                              : 1683 Кбит/сек
Программа кодирования                    : VirtualDubMod 1.5.10.2 (build 2540/release)
Библиотека кодирования                   : VirtualDubMod build 2540/release
Видео
Идентификатор                            : 0
Формат                                   : MPEG-4 Visual
Профиль формата                          : Advanced [email protected]
Параметр BVOP формата                    : 2
Параметр QPel формата                    : Нет
Параметр GMC формата                     : Без точки перехода
Параметр матрицы формата                 : Default (MPEG)
Идентификатор кодека                     : XVID
Идентификатор кодека/Подсказка           : XviD
Продолжительность                        : 2 ч. 3 м.
Битрейт                                  : 1481 Кбит/сек
Ширина                                   : 720 пикселей
Высота                                   : 304 пикселя
Соотношение сторон                       : 2,35:1
Частота кадров                           : 25,000 кадров/сек
Цветовое пространство                    : YUV
Субдискретизация насыщенности            : 4:2:0
Битовая глубина                          : 8 бит
Тип развёртки                            : Прогрессивная
Метод сжатия                             : С потерями
Бит/(Пиксели*Кадры)                      : 0.271
Размер потока                            : 1,28 Гбайт (88%)
Библиотека кодирования                   : XviD 1.2.1 (UTC 2008-12-04)
Аудио
Идентификатор                            : 1
Формат                                   : AC-3
Формат/Информация                        : Audio Coding 3
Расширение режима                        : CM (complete main)
Параметр Endianness формата              : Big
Идентификатор кодека                     : 2000
Продолжительность                        : 2 ч. 3 м.
Вид битрейта                             : Постоянный
Битрейт                                  : 192 Кбит/сек
Каналы                                   : 2 канала
Расположение каналов                     : Front: L R
Частота                                  : 48,0 КГц
Битовая глубина                          : 16 бит
Метод сжатия                             : С потерями
Размер потока                            : 170 Мбайт (11%)
Выравнивание                             : Разделение по промежуткам
Продолжительность промежутка             : 40  мс. (1,00 видеокадр)
Время предзагрузки промежутка            : 500  мс.
Скриншоты:Время раздачи: 24/7,
до 5 скачавших.
Яндекс.Метрика
Рейтинг@Mail.ru