На дне (2014) SATRip

 

Создавать темы 21-Дек-2014 05:26

-На дне (2014) SATRip- Год выпуска: 2014
Жанр: Драма
Перевод: Отсутствует
Режиссер: Владимир Котт
Актеры: Велимир Русаков, Михаил Ефремов, Евгения Добровольская, Борис Каморзин, Агния Кузнецова, Олег Васильков, Сергей Сосновский, Александр Трофимов, Семен Трескунов
Описание фильма:
Экранизация одноименной пьесы Максима Горького, действие которой перенесено в наши дни. Герои фильма живут на самой настоящей свалке - они "ходят на разбор", откапывая в горах мусора ценный металл и вещи на продажу, воруют, пьют и бьют друг друга смертным боем. Однажды на свалке появляется подросток-беспризорник Лука, который старается утешить этих опустившихся на дно жизни людей.

Продолжительность: 02:07:07
Качество видео: SATRip
Сэмпл: Скачать
Видеокодек: Xvid
Битрейт видео: ~1768 kbps
Размер кадра: 720x400
Аудиокодек: AC3 2.0
Битрейт аудио: 192 kbps CBR

MediaInfo

Общее
Полное имя : Z:\media\demon99\525C2FA55C2F82B9\Dowloands\Видео\Na.dne.2014.SATRip.Files-x.GeneralFilm.avi
Формат : AVI
Формат/Информация : Audio Video Interleave
Размер файла : 1,75 Гбайт
Продолжительность : 2 ч. 7 м.
Общий поток : 1970 Кбит/сек
Программа кодирования : VirtualDubModRus 1.5.10.2 (build 2542/release)
Библиотека кодирования : VirtualDubMod build 2542/release
Видео
Идентификатор : 0
Формат : MPEG-4 Visual
Профиль формата : Advanced [email protected]
Параметр BVOP формата : 1
Параметр QPel формата : Нет
Параметр GMC формата : Без точки перехода
Параметр матрицы формата : Выборочная
Идентификатор кодека : XVID
Идентификатор кодека/Подсказка : XviD
Продолжительность : 2 ч. 7 м.
Битрейт : 1768 Кбит/сек
Ширина : 720 пикселей
Высота : 400 пикселей
Соотношение сторон : 16:9
Частота кадров : 25,000 кадров/сек
Цветовое пространство : YUV
Субдискретизация насыщенности : 4:2:0
Битовая глубина : 8 бит
Тип развёртки : Прогрессивная
Метод сжатия : С потерями
Бит/(Пиксели*Кадры) : 0.246
Размер потока : 1,57 Гбайт (90%)
Библиотека кодирования : XviD 73
Аудио
Идентификатор : 1
Формат : AC-3
Формат/Информация : Audio Coding 3
Расширение режима : CM (complete main)
Параметр Endianness формата : Big
Идентификатор кодека : 2000
Продолжительность : 2 ч. 7 м.
Вид битрейта : Постоянный
Битрейт : 192 Кбит/сек
Каналы : 2 канала
Расположение каналов : Front: L R
Частота : 48,0 КГц
Битовая глубина : 16 бит
Метод сжатия : С потерями
Размер потока : 175 Мбайт (10%)
Выравнивание : Разделение по промежуткам
Продолжительность промежутка : 40 мс. (1,00 видеокадр)
Время предзагрузки промежутка : 500 мс.
Скриншоты:
-Время раздачи: С 18:00 до 00:00
Яндекс.Метрика
Рейтинг@Mail.ru