Таблетка от слез (2014) SATRip

 

Создавать темы 21-Дек-2014 05:20

-Таблетка от слез (2014) SATRip- Год выпуска: 2014
Производство: Россия, Кинокомпания "УПС"
Жанр: Мелодрама
Режиссер: Серик Бейсеуов
В ролях: Светлана Павлова, Дмитрий Блажко, Анна Сергеева, Антон Батырев
Описание фильма:
Лариса - молодая красивая студентка пединститута. Вот уже почти год у нее длится роман с Ромой - москвичом из состоятельной семьи. Свое высшее образование Лариса скорее "домучивает ради корочки", ведь она уверена в том, что ее любовь взаимна и до счастливого замужества рукой подать. Но все оказывается не так уж здорово. Поняв, что Лариса хочет за него замуж, легкомысленный и привыкший жить за счет родителей Роман, испугавшись серьезных отношений, бросает девушку.
Перевод: Не требуется

Дата российской премьеры: 20 декабря 2014
Продолжительность: 01:29:44
Качество видео: SATRip
Формат файла: AVI
Видеокодек: Xvid
Битрейт видео: ~1980 kbps avg, 0.28 bit/pixel
Размер кадра: 720x400 (1.80:1), 25 fps
Аудиокодек: AC-3, 2 ch
Битрейт аудио: 192 kb/s

Благодарности:

Большое СПАСИБО человеку под ником Taz за предоставление исходника
RiperAM

MediaInfo:

Общее
Полное имя : D:\Tabletka.ot.slez.2014.SATRip..avi
Формат : AVI
Формат/Информация : Audio Video Interleave
Размер файла : 1,37 Гбайт
Продолжительность : 1 ч. 29 м.
Общий поток : 2182 Кбит/сек
Программа кодирования : VirtualDubMod 1.5.10.3 | www.virtualdub-fr.org || (build 2550/release)
Библиотека кодирования : VirtualDubMod build 2550/release
Видео
Идентификатор : 0
Формат : MPEG-4 Visual
Профиль формата : Advanced [email protected]
Параметр BVOP формата : 2
Параметр QPel формата : Нет
Параметр GMC формата : Без точки перехода
Параметр матрицы формата : Default (H.263)
Идентификатор кодека : XVID
Идентификатор кодека/Подсказка : XviD
Продолжительность : 1 ч. 29 м.
Битрейт : 1980 Кбит/сек
Ширина : 720 пикселей
Высота : 400 пикселей
Соотношение сторон : 16:9
Частота кадров : 25,000 кадров/сек
Цветовое пространство : YUV
Субдискретизация насыщенности : 4:2:0
Битовая глубина : 8 бит
Тип развёртки : Прогрессивная
Метод сжатия : С потерями
Бит/(Пиксели*Кадры) : 0.275
Размер потока : 1,24 Гбайт (91%)
Библиотека кодирования : XviD 1.2.1 (UTC 2008-12-04)
Аудио
Идентификатор : 1
Формат : AC-3
Формат/Информация : Audio Coding 3
Расширение режима : CM (complete main)
Параметр Endianness формата : Big
Идентификатор кодека : 2000
Продолжительность : 1 ч. 29 м.
Вид битрейта : Постоянный
Битрейт : 192 Кбит/сек
Каналы : 2 канала
Расположение каналов : Front: L R
Частота : 48,0 КГц
Битовая глубина : 16 бит
Метод сжатия : С потерями
Размер потока : 123 Мбайт (9%)
Выравнивание : Разделение по промежуткам
Продолжительность промежутка : 40 мс. (1,00 видеокадр)
Время предзагрузки промежутка : 500 мс.
Скриншоты:
-Время раздачи: 24/7 до первых 5 скачавших.
Яндекс.Метрика
Рейтинг@Mail.ru