Луни Тюнз снова в деле / Looney Tunes Back in Action (Джо Данте / Joe Dante) [2003 г, мультфильм, комедия, приключения, семейный, BDRip-1080P] Dub + 2 DVO(Tycoon-studio, Гланц и И.Королёва) + Original (Eng)

 

Создавать темы 21-Дек-2014 04:17

-Луни Тюнз снова в деле / Looney Tunes Back in Action-- Производство: США
Год выпуска: 2003 г.
Жанр: мультфильм, комедия, приключения, семейный
Продолжительность: 01:31:39
Перевод: Профессиональный (полное дублирование) [DUB]
Перевод 2: Профессиональный (двухголосый, закадровый) [Tycoon-studio]
Перевод 3: Профессиональный (двухголосый, закадровый) [Гланц и Инна Королёва]
Оригинальный аудиопоток: английский
Режиссер: Джо Данте / Joe Dante-В ролях: Брендан Фрэйзер, Тимоти Далтон, Дженна Элфман, Стив Мартин, Джоан Кьюсак, Хезер Локлир, Билл Голдберг, Дон Стэнтон, Дэн Стэнтон, Дик Миллер-Описание: Анимационные герои: Багс Банни и Даффи Дак — в реальной жизни! Поиски пропавшего человека и огромного мифического алмаза приводят Багса и Даффи сначала в Лас-Вегас, а затем в непроходимые джунгли Африки…-
Качество видео: BDRip-1080P
Контейнер: MKV
Видео кодек: H.264
Аудио кодек: AC3
Видео: 1920x800, 9474 Kbps, 23.976 кадр/с, 0.257 bt/px
Аудио: AC-3, 6 ch, 384 Kbps, 48 kHz Rus DUB
Аудио: AC-3, 6 ch, 448 Kbps, 48 kHz Rus Tycoon-studio
Аудио: AC-3, 6 ch, 448 Kbps, 48 kHz Rus Гланц и Инна Королёва
Аудио: AC-3, 6 ch, 448 Kbps, 48 kHz Eng Original
Cубтитры: отсутствуют

Media Info

F:\38 ПОПУГАЕВ\LOONEY TUNES BACK IN ACTION(ЛУНИ ТЮНЗ СНОВА В ДЕЛЕ).mkv
General
Unique ID : 204714591218155436853805112374615254387 (0x9A02989BD8487962A5A8413818EAA573)
Complete name : F:\38 ПОПУГАЕВ\LOONEY TUNES BACK IN ACTION(ЛУНИ ТЮНЗ СНОВА В ДЕЛЕ).mkv
Format : Matroska
Format version : Version 1
File size : 7.32 GiB
Duration : 1h 31mn
Overall bit rate : 11.4 Mbps
Movie name : Looney Tunesc Back in Action (2003) - Release for HDCLUB
Encoded date : UTC 2014-12-19 23:35:22
Writing application : mkvmerge v2.5.3 ('Boogie') built on Mar 7 2009 15:00:41
Writing library : libebml v0.7.7 + libmatroska v0.8.1
Video #1
ID : 1
Format : AVC
Format/Info : Advanced Video Codec
Format profile : [email protected]
Format settings, CABAC : Yes
Format settings, ReFrames : 5 frames
Codec ID : V_MPEG4/ISO/AVC
Duration : 1h 31mn
Bit rate : 9 474 Kbps
Width : 1 920 pixels
Height : 800 pixels
Display aspect ratio : 2.40:1
Frame rate mode : Constant
Frame rate : 23.976 fps
Color space : YUV
Chroma subsampling : 4:2:0
Bit depth : 8 bits
Scan type : Progressive
Bits/(Pixel*Frame) : 0.257
Stream size : 6.07 GiB (83%)
Writing library : x264 core 130 r2273 b3065e6
Encoding settings : cabac=1 / ref=5 / deblock=1:-3:-3 / analyse=0x3:0x113 / me=umh / subme=11 / psy=1 / psy_rd=1.00:0.10 / mixed_ref=1 / me_range=32 / chroma_me=1 / trellis=2 / 8x8dct=1 / cqm=0 / deadzone=21,11 / fast_pskip=0 / chroma_qp_offset=-3 / threads=6 / lookahead_threads=1 / sliced_threads=0 / nr=0 / decimate=1 / interlaced=0 / bluray_compat=0 / constrained_intra=0 / bframes=8 / b_pyramid=2 / b_adapt=2 / b_bias=0 / direct=1 / weightb=1 / open_gop=0 / weightp=2 / keyint=250 / keyint_min=23 / scenecut=40 / intra_refresh=0 / rc=crf / mbtree=0 / crf=18.0 / qcomp=0.60 / qpmin=0 / qpmax=51 / qpstep=4 / ip_ratio=1.40 / pb_ratio=1.30 / aq=1:1.00
Language : English
Default : Yes
Forced : No
Audio #2
ID : 2
Format : AC-3
Format/Info : Audio Coding 3
Mode extension : CM (complete main)
Format settings, Endianness : Big
Codec ID : A_AC3
Duration : 1h 31mn
Bit rate mode : Constant
Bit rate : 384 Kbps
Channel(s) : 6 channels
Channel positions : Front: L C R, Side: L R, LFE
Sampling rate : 48.0 KHz
Bit depth : 16 bits
Compression mode : Lossy
Stream size : 252 MiB (3%)
Title : DUB
Language : Russian
Default : Yes
Forced : No
Audio #3
ID : 3
Format : AC-3
Format/Info : Audio Coding 3
Mode extension : CM (complete main)
Format settings, Endianness : Big
Codec ID : A_AC3
Duration : 1h 31mn
Bit rate mode : Constant
Bit rate : 448 Kbps
Channel(s) : 6 channels
Channel positions : Front: L C R, Side: L R, LFE
Sampling rate : 48.0 KHz
Bit depth : 16 bits
Compression mode : Lossy
Delay relative to video : 1s 300ms
Stream size : 294 MiB (4%)
Title : DVO Tycoon-studio
Language : Russian
Default : No
Forced : No
Audio #4
ID : 4
Format : AC-3
Format/Info : Audio Coding 3
Mode extension : CM (complete main)
Format settings, Endianness : Big
Codec ID : A_AC3
Duration : 1h 31mn
Bit rate mode : Constant
Bit rate : 448 Kbps
Channel(s) : 6 channels
Channel positions : Front: L C R, Side: L R, LFE
Sampling rate : 48.0 KHz
Bit depth : 16 bits
Compression mode : Lossy
Stream size : 294 MiB (4%)
Title : DVO Гланц и Инна Королёва
Language : Russian
Default : No
Forced : No
Audio #5
ID : 5
Format : AC-3
Format/Info : Audio Coding 3
Mode extension : CM (complete main)
Format settings, Endianness : Big
Codec ID : A_AC3
Duration : 1h 31mn
Bit rate mode : Constant
Bit rate : 448 Kbps
Channel(s) : 6 channels
Channel positions : Front: L C R, Side: L R, LFE
Sampling rate : 48.0 KHz
Bit depth : 16 bits
Compression mode : Lossy
Stream size : 294 MiB (4%)
Language : English
Default : No
Forced : No

log x.264

x264 [info]: frame I:1220  Avg QP:17.40  size:174077
x264 [info]: frame P:31630 Avg QP:18.07 size: 84886
x264 [info]: frame B:98982 Avg QP:20.14 size: 38081
x264 [info]: consecutive B-frames: 2.9% 3.7% 10.6% 29.9% 18.9% 24.9% 4.2% 3.7% 1.2%
x264 [info]: mb I I16..4: 5.9% 77.2% 16.9%
x264 [info]: mb P I16..4: 2.0% 31.4% 2.6% P16..4: 23.2% 25.6% 8.1% 0.0% 0.0% skip: 7.2%
x264 [info]: mb B I16..4: 0.6% 6.5% 0.4% B16..8: 31.4% 20.9% 3.6% direct: 9.5% skip:27.1% L0:42.2% L1:41.1% BI:16.7%
x264 [info]: 8x8 transform intra:86.7% inter:57.4%
x264 [info]: coded y,uvDC,uvAC intra: 91.5% 86.8% 67.5% inter: 36.2% 29.8% 5.2%
x264 [info]: i16 v,h,dc,p: 53% 10% 8% 29%
x264 [info]: i8 v,h,dc,ddl,ddr,vr,hd,vl,hu: 10% 10% 14% 9% 11% 11% 11% 12% 13%
x264 [info]: i4 v,h,dc,ddl,ddr,vr,hd,vl,hu: 14% 12% 11% 7% 13% 12% 12% 9% 11%
x264 [info]: i8c dc,h,v,p: 43% 24% 19% 14%
x264 [info]: Weighted P-Frames: Y:8.7% UV:6.0%
x264 [info]: ref P L0: 47.0% 11.5% 24.5% 8.0% 8.1% 0.9% 0.1%
x264 [info]: ref B L0: 75.8% 17.3% 5.3% 1.6%
x264 [info]: ref B L1: 92.6% 7.4%
x264 [info]: kb/s:9699.60
x264 [total]: encoded 131832 frames, 2.91 fps, 9699.61 kb

Скриншоты

Яндекс.Метрика
Рейтинг@Mail.ru