Южный Парк / South Park / Полный / Сезон 18 / Серий: 10 из 10 (Трей Паркер / Trey Parker, ...) [2014, мультфильм, комедия, ..., WEB-DLRip 720р] VO (CasStudio) + Original (Eng) + Sub (Rus, Eng)

 

Создавать темы 21-Дек-2014 03:56

Южный Парк / South Park
«Four boys. One f**ked up town»
- Русское название: Южный Парк
Оригинальное название: South Park
Страна: США
Год выпуска: 2014
Жанр: мультфильм, комедия, ...-Премьера (мир): 13 августа 1997, ...
Релиз на DVD: 31 марта 2014, «Новый Диск», ...-Релиз: |CasStudio|
Перевод: Одноголосый закадровый, любительский
Оригинальный аудиопоток: английский-Режиссер: Трей Паркер / Trey Parker, Мэтт Стоун / Matt Stone, Брайан Граден / Brian Graden , ...
Актеры: Трей Паркер, Мэтт Стоун, Мона Маршалл, Айзек Хейз, Эйприл Стюарт, Элиза Шнайдер, Эдриан Бирд, Мэри Кэй Бергман, Дженнифер Хауэлл, Кайл Маккаллок, ...-Описание фильма:
Cтранноватые истории из жизни нескольких третьеклашек из маленького городка Саус Парк в штате Колорадо. Это комедия с элементами гротеска, фарса, пародии, обильно сдобренная музыкой и той самой плохо определяемой словами чертовщиной…-Сезон: 18
Серии: 10 из 10 серий
Продолжительность: ~ 00:22:00 мин серия-Качество видео: WEB-DLRip 720р
Контейнер: MKV
Видеокодек: AVC ([email protected])
Аудиокодек: AC3
Видео: AVC at 2608 Кбит/сек: 1280 x 718 (1.783) at 23.976 fps
Аудио Rus: AC-3 at 384 Кбит/сек: 6 каналов, 48,0 КГц |Кубик в Кубе|
Аудио Eng: AC-3 at 384 Кбит/сек: 6 каналов, 48,0 КГц |Original|
Cубтитры: Русские (Doctor Joker), английские
Формат субтитров: softsub (SRT)
- -

Список серий:

  • Перейти на самофинансирование (Go Fund Yourself)
  • Вирус Эбола без глютена (Gluten Free Ebola)
  • Сисси (The Cissy)
  • Гандикап (Handicar)
  • Стив бесстрашный пилот (Steve the Fearless Pilot)
  • Freemium не бесплатно (Freemium Isn't Free)
  • Заземленной Vindaloop (Grounded Vindaloop)
  • C.... Магия (C... Magic)
  • Пересказ (REHASH)
  • Счастливые голограммы (Happy Holograms)
-

MediaInfo:

Общее
Уникальный идентификатор                 : 175716828912668971303318710089983732518 (0x8431D48B7F7115648B7017E3880C2B26)
Полное имя                               : E:\_Сериалы\_МультСериалы\Южный Парк\South.Park.S18.720p.WEB-DL.DD5.1.H264-CasStudio\South.Park.S18E01.720p.WEB-DL.DD5.1.H264-CasStudio.mkv
Формат                                   : Matroska
Версия формата                           : Version 4 / Version 2
Размер файла                             : 546 Мбайт
Продолжительность                        : 22 м.
Общий поток                              : 3444 Кбит/сек
Название фильма                          : South.Park.S18E01.720p.WEB-DL.DD5.1.H264-CasStudio
Дата кодирования                         : UTC 2014-09-26 20:40:37
Программа кодирования                    : mkvmerge v7.2.0 ('On Every Street') 32bit built on Sep 13 2014 15:42:11
Библиотека кодирования                   : libebml v1.3.0 + libmatroska v1.4.1
DURATION                                 : 00:21:56.147000000
NUMBER_OF_FRAMES                         : 515
NUMBER_OF_BYTES                          : 22780
_STATISTICS_WRITING_APP                  : mkvmerge v7.2.0 ('On Every Street') 32bit built on Sep 13 2014 15:42:11
_STATISTICS_WRITING_DATE_UTC             : 2014-09-26 20:40:37
_STATISTICS_TAGS                         : BPS DURATION NUMBER_OF_FRAMES NUMBER_OF_BYTES
Видео
Идентификатор                            : 1
Формат                                   : AVC
Формат/Информация                        : Advanced Video Codec
Профиль формата                          : [email protected]
Параметр CABAC формата                   : Нет
Параметр ReFrames формата                : 2 кадра
Идентификатор кодека                     : V_MPEG4/ISO/AVC
Продолжительность                        : 22 м.
Битрейт                                  : 2608 Кбит/сек
Ширина                                   : 1280 пикселей
Высота                                   : 718 пикселей
Соотношение сторон                       : 16:9
Режим частоты кадров                     : Постоянный
Частота кадров                           : 23,976 кадра/сек
Цветовое пространство                    : YUV
Субдискретизация насыщенности            : 4:2:0
Битовая глубина                          : 8 бит
Тип развёртки                            : Прогрессивная
Бит/(Пиксели*Кадры)                      : 0.118
Размер потока                            : 414 Мбайт (76%)
Заголовок                                : WEB-DL 720p CasStudio
Язык                                     : English
Default                                  : Да
Forced                                   : Нет
Основные цвета                           : BT.709
Характеристики трансфера                 : BT.709
Коэффициенты матрицы                     : BT.709
Аудио #1
Идентификатор                            : 2
Формат                                   : AC-3
Формат/Информация                        : Audio Coding 3
Расширение режима                        : CM (complete main)
Параметр Endianness формата              : Big
Идентификатор кодека                     : A_AC3
Продолжительность                        : 22 м.
Вид битрейта                             : Постоянный
Битрейт                                  : 384 Кбит/сек
Каналы                                   : 6 каналов
Расположение каналов                     : Front: L C R, Side: L R, LFE
Частота                                  : 48,0 КГц
Битовая глубина                          : 16 бит
Метод сжатия                             : С потерями
Размер потока                            : 60,9 Мбайт (11%)
Заголовок                                : DD 5.1 VO [L0cDoG]
Язык                                     : Russian
Default                                  : Да
Forced                                   : Нет
Аудио #2
Идентификатор                            : 3
Формат                                   : AC-3
Формат/Информация                        : Audio Coding 3
Расширение режима                        : CM (complete main)
Параметр Endianness формата              : Big
Идентификатор кодека                     : A_AC3
Продолжительность                        : 22 м.
Вид битрейта                             : Постоянный
Битрейт                                  : 384 Кбит/сек
Каналы                                   : 6 каналов
Расположение каналов                     : Front: L C R, Side: L R, LFE
Частота                                  : 48,0 КГц
Битовая глубина                          : 16 бит
Метод сжатия                             : С потерями
Размер потока                            : 60,9 Мбайт (11%)
Заголовок                                : DD 5.1 Original [HDTV]
Язык                                     : English
Default                                  : Нет
Forced                                   : Нет
Текст #1
Идентификатор                            : 4
Формат                                   : UTF-8
Идентификатор кодека                     : S_TEXT/UTF8
Идентификатор кодека/Информация          : UTF-8 Plain Text
Заголовок                                : Full Doctor Joker
Язык                                     : Russian
Default                                  : Нет
Forced                                   : Нет
Текст #2
Идентификатор                            : 5
Формат                                   : UTF-8
Идентификатор кодека                     : S_TEXT/UTF8
Идентификатор кодека/Информация          : UTF-8 Plain Text
Заголовок                                : CC
Язык                                     : English
Default                                  : Нет
Forced                                   : Нет
-

Скриншот c названием фильма

-Скриншоты:
-

Еще

-

Как закачать отдельный файл

1. Открыть торрент
2. Снять галки с тех файлов торрента, которые мы не хотим закачивать. Оставляем только на нужных нам файлах (файле).
3. Нажать О.К.
В клиенте utorrent
Инструкция
1) Открыть торрент

2) Снять галки с тех файлов торрента, которые мы не хотим закачивать:
* либо вручную, снимая с каждого файла галку( скрин №1)
* либо, нажав кнопку "Снять метки (Select None)", сняв сразу со всех файлов(скрин №2)
№1

№2

Оставляем только на нужных нам файлах (файле).

3)Нажать О.К
-Добавлена десятая, заключительная, серия четвертого сезона.
Яндекс.Метрика
Рейтинг@Mail.ru