[ Сегодня на трекере фрилич! Идет свободное скачивание без начисления Download ]

Росомаха: Бессмертный / The Wolverine (Джеймс Мэнголд / James Mangold) [2013 г., фантастика, фэнтези, боевик, приключения, BDRip 720p] Dub [iTunes Russia] + MVO [BaibaKo] + Original (Eng) + Sub (Rus, Eng)

 

Создавать темы 18-Ноя-2013 13:13

--Росомаха: Бессмертный / The Wolverine-«When he's most vulnerable, he's most dangerous»- Производство: США / Twentieth Century Fox Film Corporation, Marvel Entertainment, Dune Entertainment
Год выпуска: 2013 г.
Жанр: фантастика, фэнтези, боевик, приключения
Продолжительность: 02:06:09-Мировая премьера: 24 июля 2013
Премьера (РФ): 25 июля 2013, «Двадцатый Век Фокс СНГ»
Релиз на DVD: 28 ноября 2013, «Двадцатый Век Фокс СНГ»
Релиз на Blu-Ray: 28 ноября 2013, «Двадцатый Век Фокс СНГ»-Перевод 1: Профессиональный (полное дублирование) [iTunes Russia]
Перевод 2: Многоголосый, закадровый [BaibaKo]
Оригинальный аудиопоток: английский-Режиссер: Джеймс Мэнголд / James Mangold-В ролях: Хью Джекман, Тао Окамото, Рила Фукусима, Светлана Ходченкова, Уилл Юн Ли, Харукико Яманоути, Хироюки Санада, Брайан Ти, Кен Ямамура, Фамке Янссен-Описание: Новая глава приключений Росомахи развернётся в Японии, где Логану предстоит выяснить, что острее — когти Росомахи или меч Серебряного Самурая.-- -Качество видео: BDRip 720p
Контейнер: MKV
Видео кодек: AVC/H.264
Аудио кодек: AC3/DTS
Видео: 1280x532 (2,40:1), 23.976 fps, AVC/H.264 ~5255 kbps, 0.322 bit/pixel
Аудио 1: 48 kHz, AC3 Dolby Digital, 3/2 (L,C,R,l,r) + LFE ch, ~384 kbps [Dub]
Аудио 2: 48 kHz, AC3 Dolby Digital, 3/2 (L,C,R,l,r) + LFE ch, ~384 kbps [MVO]
Аудио 3: 48 kHz, DTS, 3/2 (L,C,R,l,r) + LFE ch, ~1509.00 kbps [ENG]
Cубтитры: Русские (На японскую речь), Английские
-

Media Info

Общее
Уникальный идентификатор : 174841047403076500855421313068867234472 (0x8389292EC971C4C183F2FBA4A48BAAA8)
Полное имя : H:\Torrent2\The.Wolverine.2013.(Theatrical).x264.BDRip.720p_[pirat.ca].mkv
Формат : Matroska
Версия формата : Version 2
Размер файла : 6,63 Гбайт
Продолжительность : 2 ч. 6 м.
Общий поток : 7525 Кбит/сек
Дата кодирования : UTC 2013-11-17 22:18:56
Программа кодирования : mkvmerge v5.6.0 ('Kenya Kane') built on May 27 2012 16:44:04
Библиотека кодирования : libebml v1.2.3 + libmatroska v1.3.0
Видео
Идентификатор : 1
Формат : AVC
Формат/Информация : Advanced Video Codec
Профиль формата : [email protected]
Параметр CABAC формата : Да
Параметр ReFrames формата : 9 кадров
Идентификатор кодека : V_MPEG4/ISO/AVC
Продолжительность : 2 ч. 6 м.
Битрейт : 5255 Кбит/сек
Ширина : 1280 пикселей
Высота : 532 пикселя
Соотношение сторон : 2,40:1
Режим частоты кадров : Постоянный
Частота кадров : 23,976 кадра/сек
Цветовое пространство : YUV
Субдискретизация насыщенности : 4:2:0
Битовая глубина : 8 бит
Тип развёртки : Прогрессивная
Бит/(Пиксели*Кадры) : 0.322
Размер потока : 4,49 Гбайт (68%)
Библиотека кодирования : x264 core 125 r2200 999b753
Настройки программы : cabac=1 / ref=9 / deblock=1:-3:-3 / analyse=0x3:0x133 / me=umh / subme=11 / psy=1 / psy_rd=1.00:0.10 / mixed_ref=1 / me_range=48 / chroma_me=1 / trellis=2 / 8x8dct=1 / cqm=0 / deadzone=21,11 / fast_pskip=0 / chroma_qp_offset=-3 / threads=12 / lookahead_threads=2 / sliced_threads=0 / nr=0 / decimate=0 / interlaced=0 / bluray_compat=0 / constrained_intra=0 / bframes=9 / b_pyramid=2 / b_adapt=2 / b_bias=0 / direct=3 / weightb=1 / open_gop=0 / weightp=2 / keyint=240 / keyint_min=23 / scenecut=40 / intra_refresh=0 / rc_lookahead=40 / rc=2pass / mbtree=1 / bitrate=5255 / ratetol=1.0 / qcomp=0.60 / qpmin=0 / qpmax=69 / qpstep=4 / cplxblur=20.0 / qblur=0.5 / vbv_maxrate=50000 / vbv_bufsize=52500 / nal_hrd=none / ip_ratio=1.40 / aq=1:1.00
Default : Да
Forced : Нет
Аудио #1
Идентификатор : 2
Формат : AC-3
Формат/Информация : Audio Coding 3
Расширение режима : CM (complete main)
Параметр Endianness формата : Big
Идентификатор кодека : A_AC3
Продолжительность : 2 ч. 6 м.
Вид битрейта : Постоянный
Битрейт : 384 Кбит/сек
Каналы : 6 каналов
Расположение каналов : Front: L C R, Side: L R, LFE
Частота : 48,0 КГц
Битовая глубина : 16 бит
Метод сжатия : С потерями
Размер потока : 346 Мбайт (5%)
Язык : Russian
Default : Да
Forced : Нет
Аудио #2
Идентификатор : 3
Формат : AC-3
Формат/Информация : Audio Coding 3
Расширение режима : CM (complete main)
Параметр Endianness формата : Big
Идентификатор кодека : A_AC3
Продолжительность : 2 ч. 6 м.
Вид битрейта : Постоянный
Битрейт : 384 Кбит/сек
Каналы : 6 каналов
Расположение каналов : Front: L C R, Side: L R, LFE
Частота : 48,0 КГц
Битовая глубина : 16 бит
Метод сжатия : С потерями
Размер потока : 346 Мбайт (5%)
Заголовок : Профессиональный многоголосый (BaibaKo)
Язык : Russian
Default : Нет
Forced : Нет
Аудио #3
Идентификатор : 4
Формат : DTS
Формат/Информация : Digital Theater Systems
Профиль формата : ES
Режим : 16
Параметр Endianness формата : Big
Идентификатор кодека : A_DTS
Продолжительность : 2 ч. 6 м.
Вид битрейта : Постоянный
Битрейт : 1509 Кбит/сек
Каналы : 6 каналов
Расположение каналов : Front: L C R, Side: L R, LFE
Частота : 48,0 КГц
Битовая глубина : 24 бит
Метод сжатия : С потерями
Размер потока : 1,33 Гбайт (20%)
Язык : English
Default : Нет
Forced : Нет
Текст #1
Идентификатор : 5
Формат : UTF-8
Идентификатор кодека : S_TEXT/UTF8
Идентификатор кодека/Информация : UTF-8 Plain Text
Язык : Russian
Default : Да
Forced : Нет
Текст #2
Идентификатор : 6
Формат : UTF-8
Идентификатор кодека : S_TEXT/UTF8
Идентификатор кодека/Информация : UTF-8 Plain Text
Язык : English
Default : Нет
Forced : Нет
Текст #3
Идентификатор : 7
Формат : UTF-8
Идентификатор кодека : S_TEXT/UTF8
Идентификатор кодека/Информация : UTF-8 Plain Text
Язык : English
Default : Нет
Forced : Нет
Меню
00:00:00.000 : :Chapter 01
00:05:03.720 : :Chapter 03
00:07:39.667 : :Chapter 05
00:08:40.436 : :Chapter 07
00:10:25.499 : :Chapter 09
00:13:56.794 : :Chapter 11
00:16:49.299 : :Chapter 13
00:19:13.068 : :Chapter 15
00:22:03.321 : :Chapter 17
00:26:38.304 : :Chapter 19
00:28:53.398 : :Chapter 21
00:30:21.402 : :Chapter 23
00:33:43.145 : :Chapter 25
00:38:08.244 : :Chapter 27
00:42:42.309 : :Chapter 29
00:44:19.072 : :Chapter 31
00:47:06.740 : :Chapter 33
00:52:38.279 : :Chapter 35
00:54:37.315 : :Chapter 37
01:00:06.477 : :Chapter 39
01:06:16.221 : :Chapter 41
01:11:36.959 : :Chapter 43
01:16:25.205 : :Chapter 45
01:19:30.807 : :Chapter 47
01:22:34.574 : :Chapter 49
01:27:33.205 : :Chapter 51
01:30:37.139 : :Chapter 53
01:33:00.032 : :Chapter 55
01:36:33.203 : :Chapter 57
01:40:14.216 : :Chapter 59
01:43:04.511 : :Chapter 61
01:46:07.569 : :Chapter 63
01:51:06.075 : :Chapter 65
01:53:01.482 : :Chapter 67
01:55:50.776 : :Chapter 69
01:57:21.450 : :Chapter 71
02:06:08.310 : :Chapter 73

Скриншоты

Релиз от: Трейлер

Создавать темы 18-Ноя-2013 13:20 (спустя 7 минут)

Топик был перенесен из форума Зарубежные Новинки (HD*Rip/LQ, DVDRip) в форум Новинки (HD)
[email protected]

Создавать темы 26-Янв-2016 23:29 (спустя 2 года 2 месяца)

Топик был перенесен из форума Новинки (HD) в форум Зарубежные Фильмы (HD)
T_O_M
Яндекс.Метрика
Рейтинг@Mail.ru