Стражи Галактики / Guardians of the Galaxy (2014) HDRip

 

Создавать темы 20-Дек-2014 18:04

-Стражи Галактики / Guardians of the Galaxy (2014) HDRip-«Мстители спасают лишь Землю бренную,
а эти ребята спасают Вселенную»
-- Год выпуска: 2014
Производство: США / Marvel Enterprises, Marvel Studios, Moving Picture Company
Жанр: Фантастика, Боевик, Приключения
Режиссер: Джеймс Ганн
Продюсер: Кевин Файги, Виктория Алонсо, Луис Д’Эспозито
Актеры: Крис Прэтт, Зои Салдана, Дэйв Батиста, Вин Дизель, Брэдли Купер, Ли Пейс, Майкл Рукер, Карен Гиллан, Джимон Хонсу, Джон Си Райли
Описание фильма:
Питер Квилл становится жертвой охотников за головами после кражи таинственной сферы, за которой охотился Ронан- могущественный злодей, полный амбиций и угрожающий целой вселенной. Чтобы одолеть Ронана, Питеру приходится объединиться с квартетом отбросов: вооружённым до зубов Ракетным енотом, древоподобным гуманоидом Грутом, смертельно опасной и загадочной Гаморой и мстительным Драксом Разрушителем. Но когда Питер обнаруживает истинную силу сферы и узнаёт насколько она опасна для космоса, он должен сделать всё возможное, чтобы сплотить всех членов команды для последнего противостояния и вернуть баланс во всей Галактике.
Перевод: Дублированный | iTunes |
Субтитры: Отсутствуют

Дата мировой премьеры: 21 июля 2014
Дата российской премьеры: 31 июля 2014, «WDSSPR»
Дата выхода DVD релиза: 2 декабря 2014, «Уолт Дисней Компани СНГ»
Продолжительность: 02:00:51
Качество видео: HDRip
Видеокодек: XviD
Битрейт видео: ~1333 kb/s
Размер кадра: 720x304
Аудио : AC-3, 48.0 KHz, 384 kb/s (6 ch)
Сэмпл: Скачать

MediaInfo:

Общее
Полное имя                               : Stragi.Galaktiki.214.D.HDRip.1.46GB.nnm-club.avi
Формат                                   : AVI
Формат/Информация                        : Audio Video Interleave
Размер файла                             : 1,46 Гбайт
Продолжительность                        : 2 ч. 0 м.
Общий поток                              : 1726 Кбит/сек
Программа кодирования                    : VirtualDubMod 1.5.10.3 | | (build 2550/release)
Библиотека кодирования                   : VirtualDubMod build 2550/release
Видео
Идентификатор                            : 0
Формат                                   : MPEG-4 Visual
Профиль формата                          : Advanced [email protected]
Параметр BVOP формата                    : 2
Параметр QPel формата                    : Нет
Параметр GMC формата                     : Без точки перехода
Параметр матрицы формата                 : Default (MPEG)
Идентификатор кодека                     : XVID
Идентификатор кодека/Подсказка           : XviD
Продолжительность                        : 2 ч. 0 м.
Битрейт                                  : 1333 Кбит/сек
Ширина                                   : 720 пикселей
Высота                                   : 304 пикселя
Соотношение сторон                       : 2,35:1
Частота кадров                           : 23,976 кадра/сек
Цветовое пространство                    : YUV
Субдискретизация насыщенности            : 4:2:0
Битовая глубина                          : 8 бит
Тип развёртки                            : Прогрессивная
Метод сжатия                             : С потерями
Бит/(Пиксели*Кадры)                      : 0.254
Размер потока                            : 1,13 Гбайт (77%)
Библиотека кодирования                   : XviD 1.2.1 (UTC 2008-12-04)
Аудио
Идентификатор                            : 1
Формат                                   : AC-3
Формат/Информация                        : Audio Coding 3
Расширение режима                        : CM (complete main)
Параметр Endianness формата              : Big
Идентификатор кодека                     : 2000
Продолжительность                        : 2 ч. 0 м.
Вид битрейта                             : Постоянный
Битрейт                                  : 384 Кбит/сек
Каналы                                   : 6 каналов
Расположение каналов                     : Front: L C R, Side: L R, LFE
Частота                                  : 48,0 КГц
Битовая глубина                          : 16 бит
Метод сжатия                             : С потерями
Размер потока                            : 332 Мбайт (22%)
Выравнивание                             : Разделение по промежуткам
Продолжительность промежутка             : 42  мс. (1,00 видеокадр)
Время предзагрузки промежутка            : 500  мс.
Скриншоты:
--Время раздачи: 24/7 (до 10 скачавших)
Яндекс.Метрика
Рейтинг@Mail.ru