[ Сегодня на трекере фрилич! Идет свободное скачивание без начисления Download ]

Последний бриллиант / Le dernier diamant (2014) BDRip [H.264]

 

Создавать темы 20-Дек-2014 18:01

-Последний бриллиант / Le dernier diamant (2014) BDRip [H.264] - Русское название: Последний бриллиант
Оригинальное название: Le dernier diamant
Год выпуска: 2014
Производство: Франция, Люксембург, Бельгия / Vertigo, Scope Pictures, Bidibul Productions
Жанр: Драма, Криминал
Перевод: Многоголосый закадровый, профессиональный
Субтитры: Отсутствуют
Режиссер: Эрик Барбье / Eric Barbier
Актеры: Иван Атталь, Беренис Бежо, Жан-Франсуа Стевенен, Антуан Баслер, Жак Списсер, Анни Корди, Мишель Израэль, Шарли Дюпон, Дэниэль Дени, Гене Бервутс
Описание фильма: Бывший заключенный, втирается в доверие к дочери покойного эксперта-ювелира с целью выкрасть «Флорентийца», один из крупнейших в мире бриллиантов. Добившись своего и заменив драгоценность фальшивкой, мошенник передает бриллиант подельникам, которые тотчас же пытаются его убить. Потеряв в одночасье бриллиант и друзей-предателей, герой пытается удержать самое дорогое, что осталось в его жизни — полюбившую его девушку.

Дата мировой премьеры: 3 апреля 2014
Продолжительность: 01:48:37
Качество видео: BDRip
Видеокодек: MPEG-4 AVC/H.264
Битрейт видео: ~2227 Кбит/сек
Размер кадра: 1024 x 424
Аудиокодек: AC3 2.0, AC3 5.1
Битрейт аудио 1: 384 Кбит/сек, 48,0 КГц, 16 бит| MVO
Битрейт аудио 2: 448 Кбит/сек, 48,0 КГц, 16 бит| Original

Mediainfo

Полное имя : Le.dernie.diamant.2014.BDRip-AVC.mkv
Формат : Matroska
Версия формата : Version 1
Размер файла : 2,32 Гбайт
Продолжительность : 1 ч. 48 м.
Общий поток : 3062 Кбит/сек
Дата кодирования : UTC 2014-12-20 15:33:20
Программа кодирования : mkvmerge v2.4.1 ('Use Me') built on Dec 5 2008 18:30:05
Библиотека кодирования : libebml v0.7.7 + libmatroska v0.8.1
Видео
Идентификатор : 1
Формат : AVC
Формат/Информация : Advanced Video Codec
Профиль формата : [url=mailto:[email protected]][email protected][/url]
Параметр CABAC формата : Да
Параметр ReFrames формата : 8 кадров
Идентификатор кодека : V_MPEG4/ISO/AVC
Продолжительность : 1 ч. 48 м.
Битрейт : 2227 Кбит/сек
Ширина : 1024 пикселя
Высота : 424 пикселя
Соотношение сторон : 2,40:1
Режим частоты кадров : Постоянный
Частота кадров : 24,000 кадра/сек
Цветовое пространство : YUV
Субдискретизация насыщенности : 4:2:0
Битовая глубина : 8 бит
Тип развёртки : Прогрессивная
Бит/(Пиксели*Кадры) : 0.214
Размер потока : 1,65 Гбайт (71%)
Библиотека кодирования : x264 core 125 r2200 999b753
Настройки программы : cabac=1 / ref=8 / deblock=1:-3:-3 / analyse=0x3:0x113 / me=umh / subme=9 / psy=1 / psy_rd=1.00:0.00 / mixed_ref=1 / me_range=32 / chroma_me=1 / trellis=2 / 8x8dct=1 / cqm=0 / deadzone=21,11 / fast_pskip=0 / chroma_qp_offset=-2 / threads=6 / lookahead_threads=1 / sliced_threads=0 / nr=0 / decimate=0 / interlaced=0 / bluray_compat=0 / constrained_intra=0 / bframes=8 / b_pyramid=2 / b_adapt=2 / b_bias=0 / direct=3 / weightb=1 / open_gop=0 / weightp=2 / keyint=240 / keyint_min=23 / scenecut=40 / intra_refresh=0 / rc=2pass / mbtree=0 / bitrate=2227 / ratetol=1.0 / qcomp=0.60 / qpmin=0 / qpmax=69 / qpstep=4 / cplxblur=20.0 / qblur=0.5 / ip_ratio=1.40 / pb_ratio=1.30 / aq=1:1.10
Язык : English
Default : Да
Forced : Нет
Аудио #1
Идентификатор : 2
Формат : AC-3
Формат/Информация : Audio Coding 3
Расширение режима : CM (complete main)
Параметр Endianness формата : Big
Идентификатор кодека : A_AC3
Продолжительность : 1 ч. 48 м.
Вид битрейта : Постоянный
Битрейт : 384 Кбит/сек
Каналы : 2 канала
Расположение каналов : Front: L R
Частота : 48,0 КГц
Битовая глубина : 16 бит
Метод сжатия : С потерями
Размер потока : 298 Мбайт (13%)
Заголовок : MVO
Язык : Russian
Default : Да
Forced : Нет
Аудио #2
Идентификатор : 3
Формат : AC-3
Формат/Информация : Audio Coding 3
Расширение режима : CM (complete main)
Параметр Endianness формата : Big
Идентификатор кодека : A_AC3
Продолжительность : 1 ч. 48 м.
Вид битрейта : Постоянный
Битрейт : 448 Кбит/сек
Каналы : 6 каналов
Расположение каналов : Front: L C R, Side: L R, LFE
Частота : 48,0 КГц
Битовая глубина : 16 бит
Метод сжатия : С потерями
Размер потока : 348 Мбайт (15%)
Заголовок : Original
Язык : French
Default : Нет
Forced : Нет
Меню
00:00:00.000 : en:00:00:00.000
00:10:40.208 : en:00:10:40.208
00:20:18.458 : en:00:20:18.458
00:31:57.500 : en:00:31:57.500
00:42:42.542 : en:00:42:42.542
00:50:37.375 : en:00:50:37.375
01:05:24.833 : en:01:05:24.833
01:12:58.708 : en:01:12:58.708
01:17:34.500 : en:01:17:34.500
01:29:30.208 : en:01:29:30.208
01:41:11.833 : en:01:41:11.833
01:43:37.083 : en:01:43:37.083
Скриншоты:
-Время раздачи: до 30 скачавших
Яндекс.Метрика
Рейтинг@Mail.ru