Святой Винсент (2014) HDRip [VO]

 

Создавать темы 20-Дек-2014 17:58

- Святой Винсент / St. Vincent (2014) - Год выпуска: 2014
Производство: США
Жанр: Драма, комедия
Режиссер: Тед Мелфи
Актеры:
Билл Мюррэй, Мелисса МакКарти, Наоми Уоттс, Крис О’Дауд, Терренс Ховард, Джейден Либерер, Кимберли Куинн, Ленни Венито, Нэйт Корддр, Дарио Бароссо
Описание фильма:
Когда новые жильцы заселялись в дом, они даже не представляли, что у них будет такой сосед, как Винсент де Ван Найс. Этот престарелый ветеран войны не любит людей, а они - его. Он постоянно пьет и развлекается с проститутками. Но соседский мальчик увидел в Винсенте нечто, что не замечают остальные. Старик в свою очередь открывается для мальчика и учит его всему, чтобы тот рос настоящим мужчиной...
Перевод: Любительский (одноголосый) [datynet]
Субтитры: Отсутствуют- -Денег потрачено: $13 000 000
Выручено в США: $42 101 229
Дата мировой премьеры: 5 сентября 2014
Продолжительность: 01:42:05
Качество видео: HDRip
Видеокодек: XviD
Битрейт видео: 1721 Kbit/s
Размер кадра: 720x304
Аудиокодек: MP3
Битрейт аудио: 192 kb/s (2 ch)
Сэмпл: Скачать

MediaInfo:

Общее
Полное имя : D:\Фильмы новинки\St.Vincent.2014.HDRip.avi
Формат : AVI
Формат/Информация : Audio Video Interleave
Размер файла : 1,38 Гбайт
Продолжительность : 1 ч. 42 м.
Общий поток : 1937 Кбит/сек
Библиотека кодирования : VirtualDub build 34753/release
Видео
Идентификатор : 0
Формат : MPEG-4 Visual
Профиль формата : Advanced [email protected]
Параметр BVOP формата : 1
Параметр QPel формата : Нет
Параметр GMC формата : Без точки перехода
Параметр матрицы формата : Default (H.263)
Режим смешивания : Сжатый битовый поток
Идентификатор кодека : XVID
Идентификатор кодека/Подсказка : XviD
Продолжительность : 1 ч. 42 м.
Битрейт : 1721 Кбит/сек
Ширина : 720 пикселей
Высота : 304 пикселя
Соотношение сторон : 2,35:1
Частота кадров : 59,940 кадров/сек
Цветовое пространство : YUV
Субдискретизация насыщенности : 4:2:0
Битовая глубина : 8 бит
Тип развёртки : Прогрессивная
Метод сжатия : С потерями
Бит/(Пиксели*Кадры) : 0.131
Размер потока : 1,23 Гбайт (89%)
Библиотека кодирования : XviD 64
Аудио
Идентификатор : 1
Формат : MPEG Audio
Версия формата : Version 1
Профиль формата : Layer 3
Идентификатор кодека : 55
Идентификатор кодека/Подсказка : MP3
Продолжительность : 1 ч. 42 м.
Вид битрейта : Постоянный
Битрейт : 192 Кбит/сек
Каналы : 2 канала
Частота : 44,1 КГц
Метод сжатия : С потерями
Размер потока : 140 Мбайт (10%)
Выравнивание : Разделение по промежуткам
Продолжительность промежутка : 17 мс. (1,00 видеокадр)
Время предзагрузки промежутка : 500 мс.
Скриншоты:-Время раздачи: По возможности. До первых 5 сидов.
Яндекс.Метрика
Рейтинг@Mail.ru