Страховщик / Automata (2014) BDRip

 

Создавать темы 20-Дек-2014 17:55

-Страховщик / Automata (2014) BDRip- Год выпуска: 2014
Производство: Испания, Болгария, Green Moon, Nu Boyana Viburno
Жанр: Фантастика, Триллер
Перевод: Дублированный (Лицензия BD RUS)
Субтитры: Нет.
Режиссер: Габе Ибаньес
Продюсер: Антонио Бандерас, Сандра Эрмида, Дэнни Лернер
Актеры: Антонио Бандерас, Биргитта Йорт Сёренсен, Мелани Гриффит, Дилан МакДермотт, Роберт Форстер, Тим МакИннерни, Энди Найман, Дэвид Райалл, Эндрю Тирнан, Криста Кэмпбелл
Описание фильма:
Главным героем фильма — страховой агент компании по изготовлению роботов Жак Вокан, который обнаруживает, что изобретаемые роботы создаются не для эксплуатации, а для истребления.

Дата мировой премьеры: 20 сентября 2014
Дата российской премьеры: 16 октября 2014, «Парадиз»
Дата украинской премьеры: 16 октября 2014, «Аврора Фильм»
Дата выхода DVD/Blu-Ray релиза: 9 декабря 2014, «Парадиз / Активижен»
Продолжительность: 01:49:54
Качество видео: BDRip
Видеокодек: XVid
Формат: AVI
Видео: 720x304 (2.37:1), 23.976 fps, XviD build 50 ~1526 kbps avg, 0.29 bit/pixel
Аудио: 48 kHz, AC3 Dolby Digital, 3/2 (L,C,R,l,r) + LFE ch, ~384 kbps

Знаете ли вы, что...

• Елена Анайя, которая работала с режиссером Габе Ибаньесом в фильме «Скелеты Железного острова» (2009), дала прочесть сценарий Антонио Бандерасу во время съемок фильма «Кожа, в которой я живу» (2011). Еще не дочитав сценарий, Антонио Бандерас позвонил режиссеру и сказал: «Я сейчас на 28 странице. Если и на 106-й сценарий будет такой же силы, мы сделаем это». Сценарий настолько вдохновил Бандераса, что он стал сопродюсером проекта.
• Роботы были созданы таким образом, чтобы актеры смогли посмотреть им в глаза и установить с ними эмоциональный контакт, несмотря на то, что перед ними были создания из пластика.

Ошибки в фильме:

• Во вступительных титрах указано, что действие происходит в 2044 году, однако на 43 минуте фильма Жак получает сообщение, в котором пропечатана дата 06/06/25.

MediaInfo:

General
Complete name : C:\Страховщик Automata (2014).avi
Format : AVI
Format/Info : Audio Video Interleave
File size : 1.47 GiB
Duration : 1h 49mn
Overall bit rate : 1 919 Kbps
Movie name :
Director :
Genre : Fantasy/Thriller / Fantasy/Thriller
Writing application : VirtualDubMod 1.5.10.3 (build 2550/release)
Original source form/Name : Movie / Movie
Video
ID : 0
Format : MPEG-4 Visual
Format profile : Advanced [email protected]
Format settings, BVOP : 2
Format settings, QPel : No
Format settings, GMC : No warppoints
Format settings, Matrix : Default (MPEG)
Codec ID : XVID
Codec ID/Hint : XviD
Duration : 1h 49mn
Bit rate : 1 526 Kbps
Width : 720 pixels
Height : 304 pixels
Display aspect ratio : 2.35:1
Frame rate : 23.976 fps
Color space : YUV
Chroma subsampling : 4:2:0
Bit depth : 8 bits
Scan type : Progressive
Compression mode : Lossy
Bits/(Pixel*Frame) : 0.291
Stream size : 1.17 GiB (80%)
Writing library : XviD 1.2.1 (UTC 2008-12-04)
Audio
ID : 1
Format : AC-3
Format/Info : Audio Coding 3
Mode extension : CM (complete main)
Format settings, Endianness : Big
Codec ID : 2000
Duration : 1h 49mn
Bit rate mode : Constant
Bit rate : 384 Kbps
Channel(s) : 6 channels
Channel positions : Front: L C R, Side: L R, LFE
Sampling rate : 48.0 KHz
Bit depth : 16 bits
Compression mode : Lossy
Stream size : 302 MiB (20%)
Alignment : Aligned on interleaves
Interleave, duration : 42 ms (1.00 video frame)
Interleave, preload duration : 512 ms
Скриншоты:-Незабываем благодарить релизеров. Приятного просмотра.-Время раздачи: (24/7 - круглосуточно)
Яндекс.Метрика
Рейтинг@Mail.ru