[ Сегодня на трекере фрилич! Идет свободное скачивание без начисления Download ]

Исчезнувшая / Gone Girl (2014) BDRip [H.264]

 

Создавать темы 20-Дек-2014 17:50

-Исчезнувшая / Gone Girl (2014) BDRip [H.264] - Русское название: Исчезнувшая
Оригинальное название: Gone Girl
Год выпуска: 2014
Производство: США, Artemple - Hollywood, New Regency Pictures, Pacific Standard, Regency Enterprises
Жанр: Триллер, Драма, Детектив
Перевод: Дублированный [Лицензия]
Оригинальная аудиодорожка: английский
Субтитры: Русские, украинские, английские
Режиссер: Дэвид Финчер / David Fincher
Актеры: Бен Аффлек, Розамунд Пайк, Кэрри Кун, Ким Диккенс, Нил Патрик Харрис, Тайлер Перри, Патрик Фьюджит, Мисси Пайл, Эмили Ратажковски, Скут МакНэйри
Описание фильма: Все было готово для празднования пятилетнего юбилея супружеской жизни, когда вдруг необъяснимо пропал один из виновников торжества. Остались следы борьбы в доме, кровь, которую явно пытались стереть, — и цепочка «ключей» в игре под названием «охота за сокровищами»; красивая, умная и невероятно изобретательная жена ежегодно устраивала ее для своего обожаемого мужа. И похоже, что эти «ключи» — размещенные ею тут и там странные записки и не менее странные безделушки — дают единственный шанс пролить свет на судьбу исчезнувшей. Вот только не придется ли «охотнику» в процессе поиска раскрыть миру и пару-тройку собственных малосимпатичных тайн?

Дата мировой премьеры: 26 сентября 2014
Дата российской премьеры: 2 октября 2014, «Двадцатый Век Фокс СНГ»
Продолжительность: 02:29:01
Качество видео: BDRip
Видеокодек: MPEG-4 AVC/H.264
Битрейт видео: ~2015 Кбит/сек
Размер кадра: 1024 x 424
Аудиокодек: AC3 5.1
Битрейт аудио 1: 448 Кбит/сек, 48,0 КГц, 16 бит| Dub
Битрейт аудио 2: 448 Кбит/сек, 48,0 КГц, 16 бит| Original

Mediainfo

Полное имя : Gone.Girl_.2014.BDRip-AVC.mkv
Формат : Matroska
Версия формата : Version 1
Размер файла : 3,03 Гбайт
Продолжительность : 2 ч. 29 м.
Общий поток : 2915 Кбит/сек
Название фильма : Gone Girl (2014)
Дата кодирования : UTC 2014-12-20 11:43:04
Программа кодирования : mkvmerge v2.4.1 ('Use Me') built on Dec 5 2008 18:30:05
Библиотека кодирования : libebml v0.7.7 + libmatroska v0.8.1
DURATION : 02:24:10.058000000
NUMBER_OF_FRAMES : 2442
NUMBER_OF_BYTES : 83789
_STATISTICS_WRITING_APP : mkvmerge v7.4.0 ('Circles') 64bit built on Dec 12 2014 12:19:56
_STATISTICS_WRITING_DATE_UTC : 2014-12-20 09:28:16
_STATISTICS_TAGS : BPS DURATION NUMBER_OF_FRAMES NUMBER_OF_BYTES
Attachment : Yes
Видео
Идентификатор : 1
Формат : AVC
Формат/Информация : Advanced Video Codec
Профиль формата : [url=mailto:[email protected]][email protected][/url]
Параметр CABAC формата : Да
Параметр ReFrames формата : 5 кадров
Идентификатор кодека : V_MPEG4/ISO/AVC
Продолжительность : 2 ч. 29 м.
Битрейт : 2015 Кбит/сек
Ширина : 1024 пикселя
Высота : 424 пикселя
Соотношение сторон : 2,40:1
Соотношение сторон в оригинале : 2,40:1
Режим частоты кадров : Постоянный
Частота кадров : 23,976 кадра/сек
Цветовое пространство : YUV
Субдискретизация насыщенности : 4:2:0
Битовая глубина : 8 бит
Тип развёртки : Прогрессивная
Бит/(Пиксели*Кадры) : 0.194
Размер потока : 2,04 Гбайт (67%)
Библиотека кодирования : x264 core 142 r2479kMod dd79a61
Настройки программы : cabac=1 / ref=6 / deblock=1:0:0 / analyse=0x3:0x133 / me=umh / subme=10 / psy=1 / fade_compensate=0.00 / psy_rd=1.00:0.00 / mixed_ref=1 / me_range=24 / chroma_me=1 / trellis=2 / 8x8dct=1 / cqm=0 / deadzone=21,11 / fast_pskip=1 / chroma_qp_offset=-2 / threads=8 / lookahead_threads=1 / sliced_threads=0 / nr=0 / decimate=1 / interlaced=0 / bluray_compat=1 / constrained_intra=0 / fgo=0 / bframes=3 / b_pyramid=1 / b_adapt=2 / b_bias=0 / direct=3 / weightb=1 / open_gop=0 / weightp=1 / keyint=240 / keyint_min=1 / scenecut=40 / intra_refresh=0 / rc_lookahead=60 / rc=2pass / mbtree=1 / bitrate=2015 / ratetol=1.0 / qcomp=0.60 / qpmin=0 / qpmax=69 / qpstep=4 / cplxblur=20.0 / qblur=0.5 / ip_ratio=1.40 / aq=1:1.00
Язык : English
Default : Да
Forced : Нет
DURATION : 02:29:01.641000000
NUMBER_OF_FRAMES : 214385
NUMBER_OF_BYTES : 2252002742
_STATISTICS_WRITING_APP : mkvmerge v7.4.0 ('Circles') 64bit built on Dec 12 2014 12:19:56
_STATISTICS_WRITING_DATE_UTC : 2014-12-20 09:28:16
_STATISTICS_TAGS : BPS DURATION NUMBER_OF_FRAMES NUMBER_OF_BYTES
Аудио #1
Идентификатор : 2
Формат : AC-3
Формат/Информация : Audio Coding 3
Расширение режима : CM (complete main)
Параметр Endianness формата : Big
Идентификатор кодека : A_AC3
Продолжительность : 2 ч. 29 м.
Вид битрейта : Постоянный
Битрейт : 448 Кбит/сек
Каналы : 6 каналов
Расположение каналов : Front: L C R, Side: L R, LFE
Частота : 48,0 КГц
Битовая глубина : 16 бит
Метод сжатия : С потерями
Размер потока : 478 Мбайт (15%)
Заголовок : Dub
Язык : Russian
Default : Да
Forced : Нет
Аудио #2
Идентификатор : 3
Формат : AC-3
Формат/Информация : Audio Coding 3
Расширение режима : CM (complete main)
Параметр Endianness формата : Big
Идентификатор кодека : A_AC3
Продолжительность : 2 ч. 29 м.
Вид битрейта : Постоянный
Битрейт : 448 Кбит/сек
Каналы : 6 каналов
Расположение каналов : Front: L C R, Side: L R, LFE
Частота : 48,0 КГц
Битовая глубина : 16 бит
Метод сжатия : С потерями
Размер потока : 478 Мбайт (15%)
Заголовок : Original
Язык : English
Default : Нет
Forced : Нет
Текст #1
Идентификатор : 4
Формат : UTF-8
Идентификатор кодека : S_TEXT/UTF8
Идентификатор кодека/Информация : UTF-8 Plain Text
Язык : Russian
Default : Да
Forced : Нет
Текст #2
Идентификатор : 5
Формат : UTF-8
Идентификатор кодека : S_TEXT/UTF8
Идентификатор кодека/Информация : UTF-8 Plain Text
Язык : Ukrainian
Default : Нет
Forced : Нет
Текст #3
Идентификатор : 6
Формат : UTF-8
Идентификатор кодека : S_TEXT/UTF8
Идентификатор кодека/Информация : UTF-8 Plain Text
Язык : English
Default : Нет
Forced : Нет
Меню
00:00:00.000 : en:00:00:00.000
00:03:27.958 : en:00:03:27.958
00:06:57.834 : en:00:06:57.834
00:08:19.541 : en:00:08:19.541
00:11:58.593 : en:00:11:58.593
00:15:01.484 : en:00:15:01.484
00:18:13.509 : en:00:18:13.509
00:19:56.737 : en:00:19:56.737
00:21:43.093 : en:00:21:43.093
00:23:53.849 : en:00:23:53.849
00:28:34.880 : en:00:28:34.880
00:31:32.516 : en:00:31:32.516
00:34:39.077 : en:00:34:39.077
00:40:51.199 : en:00:40:51.199
00:44:37.383 : en:00:44:37.383
00:46:57.815 : en:00:46:57.815
00:49:19.707 : en:00:49:19.707
00:54:13.333 : en:00:54:13.333
01:00:06.686 : en:01:00:06.686
01:03:16.209 : en:01:03:16.209
01:06:08.715 : en:01:06:08.715
01:12:56.998 : en:01:12:56.998
01:15:13.008 : en:01:15:13.008
01:19:54.456 : en:01:19:54.456
01:21:56.120 : en:01:21:56.120
01:27:24.156 : en:01:27:24.156
01:28:12.537 : en:01:28:12.537
01:33:28.561 : en:01:33:28.561
01:39:34.510 : en:01:39:34.510
01:46:26.714 : en:01:46:26.714
01:50:46.515 : en:01:50:46.515
01:56:40.619 : en:01:56:40.619
01:59:06.097 : en:01:59:06.097
02:02:23.127 : en:02:02:23.127
02:05:35.069 : en:02:05:35.069
02:12:30.818 : en:02:12:30.818
02:16:12.790 : en:02:16:12.790
02:19:56.930 : en:02:19:56.930
02:22:42.304 : en:02:22:42.304
02:24:15.647 : en:02:24:15.647
Скриншоты:
-Время раздачи: до 30 скачавших
Яндекс.Метрика
Рейтинг@Mail.ru